.
Авторизация | Регистрация
Хочешь лучшие торренты? Добавь свой email!
Добавить
» » На всякого мудреца довольно простоты (1952) DVDRip от New-Team торрент скачать бесплатно




    На всякого мудреца довольно простоты (1952) DVDRip от New-Team торрент скачать бесплатно

    Опубликовал: Админ | Дата: 23-09-2016, 14:49 | Просмотров: 17



    Снималось в: СССР
    Создали в: К/ст им.Горького
    Категория жанра: драма
    Создали в: 1952
    Время просмотра: 02: 49: 32 (01: 37: 50 + 01: 11: 42)
    Перевод текста: Не требуется
    Субтитры подготовлены: нет
    Оригинальная аудиодорожка: русский
    Главный режиссер: Анатолий Дорменко, Владимир Сухобоков

    Актеры

    Михаил Царёв, Евдокия Турчанинова, Владимир Владиславский, Елена Шатрова, Игорь Ильинский, Николай Рыжов, Надежда Борская, Элла Далматова, Иван Верейский, Иван Лагутин, Вера Пашенная, Валентина Орлова, Раиса Рейзен (Климова), Н. Синякова, Сергей Калабин, Владимир Вилль, Олег Федоровский...
    Полный список актёров
    Описание:
    Фильм-cпектакль Государственного Академического Малого театра по одноименной пьесе Александра Николаевича Островского.
    Молодой человек из небогатой семьи Егор Дмитриевич Глумов, побуждаемый честолюбием, хочет сделать карьеру. Он ловко льстит, лицемерит, угодничает, умело пользуясь слабостями своих покровителей, а втайне высмеивает их тупость и пошлость в своем дневнике. Постепенно Глумов втирается в доверие к своему богатому родственнику Нилу Федосеевичу Мамаеву и его жене Клеопатре Львовне. Мамаевы знакомят Глумова с влиятельными людьми Крутицким и Городулиным. Легко завоевав их расположение, Глумов попадает в дом богатой московской барыни Турусиной в качестве претендента на руку ее племянницы. Он готов пойти на все, чтобы ускорить эту выгодную свадьбу...



    Источник: DVD9 R5
    Качество фильма видео: DVDRip
    Тип видео видео: AVI
    Информация о видео: 688x512 (4: 3), 25 fps, XviD ~ 1636 kbps avg, 0.186 bit/pixel
    Информация о звуке: 48 kHz, Dolby Digital AC3 2.0, 192 kbps
    Раздача от:
    MediaInfo

    Общее
    Полное имя : Na.vsyakogo.mudreca.dovolno.prostoty.1952.DVDRip_New-team_by_AVP_Studio1.avi
    Формат : AVI
    Формат/Информация : Audio Video Interleave
    Размер файла : 1, 26 Гбайт
    Продолжительность : 1 ч. 37 м.
    Общий поток : 1838 Кбит/сек
    Программа кодирования : VirtualDubMod 1.5.10.3 | www.virtualdub-fr.org || (build 2550/release)
    Библиотека кодирования : VirtualDubMod build 2550/release
    Видео
    Идентификатор : 0
    Формат : MPEG-4 Visual
    Профиль формата : Advanced Simple@L5
    Параметр BVOP формата : 1
    Параметр QPel формата : Нет
    Параметр GMC формата : Без точки перехода
    Параметр матрицы формата : Выборочная
    Идентификатор кодека : XVID
    Идентификатор кодека/Подсказка : XviD
    Продолжительность : 1 ч. 37 м.
    Битрейт : 1636 Кбит/сек
    Ширина : 688 пикселей
    Высота : 512 пикселей
    Соотношение сторон : 4: 3
    Частота кадров : 25, 000 кадров/сек
    Цветовое пространство : YUV
    Субдискретизация насыщенности : 4: 2: 0
    Битовая глубина : 8 бит
    Тип развёртки : Прогрессивная
    Метод сжатия : С потерями
    Бит/(Пиксели*Кадры) : 0.186
    Размер потока : 1, 12 Гбайт (89%)
    Библиотека кодирования : XviD 1.2.1 (UTC 2008-12-04)
    Аудио
    Идентификатор : 1
    Формат : AC-3
    Формат/Информация : Audio Coding 3
    Расширение режима : CM (complete main)
    Параметр Endianness формата : Big
    Идентификатор кодека : 2000
    Продолжительность : 1 ч. 37 м.
    Вид битрейта : Постоянный
    Битрейт : 192 Кбит/сек
    Каналы : 2 канала
    Расположение каналов : Front: L R
    Частота : 48, 0 КГц
    Частота кадров : 31, 250 кадров/сек (1536 spf)
    Метод сжатия : С потерями
    Размер потока : 134 Мбайт (10%)
    Выравнивание : Разделение по промежуткам
    Продолжительность промежутка : 40 мс. (1, 00 видеокадр)
    Время предзагрузки промежутка : 500 мс

    Скриншоты



    Залил: AVPStudio

    Онлайн видео На всякого мудреца довольно простоты (1952) DVDRip от New


    Размер скачиваемого торрента: 2.18 GB (2336278528 Bytes)

    На всякого мудреца довольно простоты (1952) DVDRip от New-Team
    загрузка...
    Рейтинг →
     (голосов: 1, оценка 3/5, голосовать можно 1 раз )

    Другие торренты по теме:

  • Офицер полиции без всякого значения / Un officier de police sans importance (1973) DVDRip - от NovaLan скачать через торрент бесплатно


    • Комментарии (0):

      Информация

      Информация

        Посетители, находящиеся в группе Гости, не могут оставлять комментарии в данной новости.

        ↓ Меню



        ↓ Опрос

        А Вы добавили сайт в закладки?
        Да
        Не


        Top 10 за месяц (Фильмы)