.
Авторизация | Регистрация
Хочешь лучшие торренты? Добавь свой email!
Добавить
» » Супермакс / Supermax (2016) HDTVRip | L2 торрент скачать бесплатно




    Супермакс / Supermax (2016) HDTVRip | L2 торрент скачать бесплатно

    Опубликовал: Админ | Дата: 23-09-2016, 14:49 | Просмотров: 97



    Супермакс / Supermax
    Снималось в: Бразилия
    Создали в: Central Globo de Produ??o
    Создали в: 2016
    Сезон: 1
    Категория жанра: приключения, ужасы, триллер
    Время просмотра: х ~00: 40: 00
    Главный режиссер: Жозе Алваренга мл., Луис Энрике Кампос
    Авторы сценария: Жозе Алваренга мл., Маркаль Акино, Фернандо Бонасси, Каролина Котшо

    Актеры
    Равел Андради, Бруно Белармино, Педро Биал, Эром Кордейру, Вания де Брито, Харильдо Деда, Руй Рикардо Диас, Клео Пирес, Ф. Гугли
    Описание: Двеннадцать человек отобраны для уникального реалити-шоу: 3 месяца в тюрьме супермаксимальной безопасности посреди лесов Амазонии и никакого контакта с внешним миром. Главный приз — 2 миллиона реалов. Всех участников объединяет то, что у них были или есть проблемы с правосудием. Однако со временем, казалось бы, совершенно обыкновенная телепередача превращается в нечто более жуткое и пугающее...

    Перевод текста: Любительский (двухголосый, закадровый) | Avebrasil
    Субтитры: нет
    Качество фильма: HDTVRip
    Тип видео: AVI
    Информация о видео кодек: XviD
    Информация о звуке кодек: AC3
    Информация о видео: 720х400 (16: 9), 29.970 fps, XviD build 73 ~1 999 kbps avg
    Информация о звуке: 48.0 kHz, AC3 Dolby Digital, 2/0 (L, R) ch, ~192 kbps
    Дата премьеры (мир): 16 сентября 2016

    Media Info
    General
    Полное имя : Супер Макс - 01.avi
    Формат : AVI
    Формат/Информация : Audio Video Interleave
    Размер файла : 660 Мбайт
    Продолжительность : 41 м.
    Общий поток : 2203 Кбит/сек
    Программа кодирования : VirtualDubMod 1.5.10.3 | (build 2550/release)
    Библиотека кодирования : VirtualDubMod build 2550/release
    Видео
    Идентификатор : 0
    Формат : MPEG-4 Visual
    Профиль формата : Advanced Simple@L5
    Параметр BVOP формата : 2
    Параметр QPel формата : Нет
    Параметр GMC формата : Без точки перехода
    Параметр матрицы формата : Default (MPEG)
    Режим смешивания : Сжатый битовый поток
    Идентификатор кодека : XVID
    Идентификатор кодека/Подсказка : XviD
    Продолжительность : 41 м.
    Битрейт : 1999 Кбит/сек
    Ширина : 720 пикселей
    Высота : 400 пикселей
    Соотношение сторон : 16: 9
    Частота кадров : 29, 970 (29970/1000) кадров/сек
    Цветовое пространство : YUV
    Субдискретизация насыщенности : 4: 2: 0
    Битовая глубина : 8 бит
    Тип развёртки : Прогрессивная
    Метод сжатия : С потерями
    Бит/(Пиксели*Кадры) : 0.232
    Размер потока : 598 Мбайт (91%)
    Библиотека кодирования : XviD 73
    Аудио
    Идентификатор : 1
    Формат : AC-3
    Формат/Информация : Audio Coding 3
    Расширение режима : CM (complete main)
    Параметр Endianness формата : Big
    Идентификатор кодека : 2000
    Продолжительность : 41 м.
    Вид битрейта : Постоянный
    Битрейт : 192 Кбит/сек
    Каналы : 2 канала
    Расположение каналов : Front: L R
    Частота : 48, 0 КГц
    Частота кадров : 31, 250 кадров/сек (1536 spf)
    Метод сжатия : С потерями
    Размер потока : 57, 5 Мбайт (9%)
    Выравнивание : Разделение по промежуткам
    Продолжительность промежутка : 33 мс. (1, 00 видеокадр)
    Время предзагрузки промежутка : 500 мс.

    Скриншоты

    Залил: Zha-4k-e

    Онлайн видео Супермакс


    Размер скачиваемого торрента: 659.51 MB (691544064 Bytes)

    Супермакс/Supermax (2016) HDTVRip | L2
    загрузка...
    Рейтинг →
     (голосов: 1, оценка 3/5, голосовать можно 1 раз )

    Другие торренты по теме:

  • Супермакс / Supermax (2016) HDTVRip 720p | L2
  • Супермакс / Supermax (2016) HDTVRip | L2


    • Комментарии (0):

      Информация

      Информация

        Посетители, находящиеся в группе Гости, не могут оставлять комментарии в данной новости.

        ↓ Меню



        ↓ Опрос

        А Вы добавили сайт в закладки?
        Да
        Не


        Top 10 за месяц (Фильмы)