.
Авторизация | Регистрация
» » Нечто / The Thing (1982) BDRip 1080p от Conchita Wurst | P, P2, A | Remastered скачать торрент бесплатно




    Нечто / The Thing (1982) BDRip 1080p от Conchita Wurst | P, P2, A | Remastered скачать торрент бесплатно

    Опубликовал: Админ | Дата: 25-09-2016, 05:00 | Просмотров: 14



    Создали в: США/Universal Pictures, Turman-Foster Company
    Категория жанра: Ужасы, Фантастика, Детектив
    Время просмотра: 01: 48: 34
    Перевод текста: Профессиональный (многоголосый закадровый), профессиональный (двухголосый закадровый), авторский (одноголосый закадровый)
    Субтитры: Русский, Английский
    Главный режиссер: Джон Карпентер
    Актеры: Курт Рассел, Кит Дэвид, Уилфорд Бримли, Т.К. Картер, Дэвид Кленнон, Ричард А. Дайсарт, Чарльз Хэллахан, Питер Мэлоуни, Ричард Мейсер, Дональд Моффет, Джоэл Полис, Томас Дж. Уэйтс, Норберт Вайссер, Ларри Дж. Франко, Нат Ирвин, Уильям Земан, Эдриенн Барбо, Джон Карпентер, Джед

    Описание фильма
    Команде ученых американской исследовательской базы в Антарктике предстоит столкнуться с необъяснимым, чудовищным кошмаром. Отрезанные от всего света полярники вступают в неравную схватку с инопланетной тварью, пробудившейся после тысячелетней спячки во льдах.

    Качество фильма: BDRipCЭМПЛ
    Информация о видео: AVC/H.264, 17.5 Mbps, 1920x816
    Информация о звуке 01: AC3 5.1, 384 Kbps, 48.0 KHz - Русский (MVO, Киномания)
    Информация о звуке 02: AC3 5.1, 384 Kbps, 48.0 KHz - Русский (MVO, R5)
    Информация о звуке 03: AC3 2.0, 192 Kbps, 48.0 KHz - Русский (MVO, ОРТ)
    Информация о звуке 04: AC3 2.0, 192 Kbps, 48.0 KHz - Русский (MVO, СТС)
    Информация о звуке 05: AC3 2.0, 192 Kbps, 48.0 KHz - Русский (DVO, НТВ+)
    Информация о звуке 06: AC3 5.1, 448 Kbps, 48.0 KHz - Русский (AVO, А. Гаврилов)
    Информация о звуке 07: AC3 5.1, 448 Kbps, 48.0 KHz - Русский (AVO, В. Горчаков)
    Информация о звуке 08: DTS 5.1, 755 Kbps, 48.0 KHz - Русский (AVO, А. Михалёв)
    Информация о звуке 09: DTS 5.1, 755 Kbps, 48.0 KHz - Русский (AVO, Д. Пучков)
    Информация о звуке 10: DTS 5.1, 1509 Kbps, 48.0 KHz - Английский (Оригинал)
    MediaInfo

    Общее
    Полное имя : Нечто.mkv
    Формат : Matroska
    Версия формата : Version 1
    Размер файла : 17, 3 Гбайт
    Продолжительность : 1 ч. 48 м.
    Общий поток : 22, 7 Мбит/сек
    Дата кодирования : UTC 2016-09-23 08: 44: 40
    Программа кодирования : mkvmerge v2.4.1 (;Use Me;) built on Dec 5 2008 18: 30: 05
    Библиотека кодирования : libebml v0.7.7 + libmatroska v0.8.1
    Видео
    Идентификатор : 1
    Формат : AVC
    Формат/Информация : Advanced Video Codec
    Профиль формата : High@L4.1
    Параметр CABAC формата : Да
    Параметр ReFrames формата : 5 кадров
    Идентификатор кодека : V_MPEG4/ISO/AVC
    Продолжительность : 1 ч. 48 м.
    Битрейт : 17, 5 Мбит/сек
    Ширина : 1920 пикселей
    Высота : 816 пикселей
    Соотношение сторон : 2, 35: 1
    Режим частоты кадров : Постоянный
    Частота кадров : 23, 976 (24000/1001) кадра/сек
    Цветовое пространство : YUV
    Субдискретизация насыщенности : 4: 2: 0
    Битовая глубина : 8 бит
    Тип развёртки : Прогрессивная
    Бит/(Пиксели*Кадры) : 0.466
    Размер потока : 12, 9 Гбайт (75%)
    Заголовок : Нечто (1982)
    Библиотека кодирования : x264 core 148 r2638 7599210
    Настройки программы : cabac=1/ref=5/deblock=1: -3: -3/analyse=0x3: 0x133/me=umh/subme=10/psy=1/psy_rd=1.00: 0.10/mixed_ref=1/me_range=48/chroma_me=1/trellis=2/8x8dct=1/cqm=0/deadzone=21, 11/fast_pskip=0/chroma_qp_offset=-3/threads=6/lookahead_threads=1/sliced_threads=0/nr=0/decimate=1/interlaced=0/bluray_compat=0/constrained_intra=0/bframes=5/b_pyramid=2/b_adapt=2/b_bias=0/direct=3/weightb=1/open_gop=0/weightp=2/keyint=240/keyint_min=22/scenecut=40/intra_refresh=0/rc_lookahead=40/rc=2pass/mbtree=1/bitrate=17500/ratetol=1.0/qcomp=0.60/qpmin=10/qpmax=51/qpstep=4/cplxblur=20.0/qblur=0.5/ip_ratio=1.40/aq=1: 1.00
    Язык : English
    Default : Да
    Forced : Нет
    Аудио #1
    Идентификатор : 2
    Формат : AC-3
    Формат/Информация : Audio Coding 3
    Расширение режима : CM (complete main)
    Параметр Endianness формата : Big
    Идентификатор кодека : A_AC3
    Продолжительность : 1 ч. 48 м.
    Вид битрейта : Постоянный
    Битрейт : 384 Кбит/сек
    Каналы : 6 каналов
    Расположение каналов : Front: L C R, Side: L R, LFE
    Частота : 48, 0 КГц
    Частота кадров : 31, 250 кадров/сек (1536 spf)
    Метод сжатия : С потерями
    Задержка видео : 24 мс.
    Размер потока : 298 Мбайт (2%)
    Заголовок : AC3 (Многоголосый) Киномания
    Язык : Russian
    Default : Да
    Forced : Нет
    Аудио #2
    Идентификатор : 3
    Формат : AC-3
    Формат/Информация : Audio Coding 3
    Расширение режима : CM (complete main)
    Параметр Endianness формата : Big
    Идентификатор кодека : A_AC3
    Продолжительность : 1 ч. 48 м.
    Вид битрейта : Постоянный
    Битрейт : 384 Кбит/сек
    Каналы : 6 каналов
    Расположение каналов : Front: L C R, Side: L R, LFE
    Частота : 48, 0 КГц
    Частота кадров : 31, 250 кадров/сек (1536 spf)
    Метод сжатия : С потерями
    Задержка видео : 16 мс.
    Размер потока : 298 Мбайт (2%)
    Заголовок : AC3 (Многоголосый) R5
    Язык : Russian
    Default : Нет
    Forced : Нет
    Аудио #3
    Идентификатор : 4
    Формат : AC-3
    Формат/Информация : Audio Coding 3
    Расширение режима : CM (complete main)
    Параметр Endianness формата : Big
    Идентификатор кодека : A_AC3
    Продолжительность : 1 ч. 48 м.
    Вид битрейта : Постоянный
    Битрейт : 192 Кбит/сек
    Каналы : 2 канала
    Расположение каналов : Front: L R
    Частота : 48, 0 КГц
    Частота кадров : 31, 250 кадров/сек (1536 spf)
    Метод сжатия : С потерями
    Задержка видео : 16 мс.
    Размер потока : 149 Мбайт (1%)
    Заголовок : AC3 (Многоголосый) ОРТ
    Язык : Russian
    Default : Нет
    Forced : Нет
    Аудио #4
    Идентификатор : 5
    Формат : AC-3
    Формат/Информация : Audio Coding 3
    Расширение режима : CM (complete main)
    Параметр Endianness формата : Big
    Идентификатор кодека : A_AC3
    Продолжительность : 1 ч. 48 м.
    Вид битрейта : Постоянный
    Битрейт : 192 Кбит/сек
    Каналы : 2 канала
    Расположение каналов : Front: L R
    Частота : 48, 0 КГц
    Частота кадров : 31, 250 кадров/сек (1536 spf)
    Метод сжатия : С потерями
    Задержка видео : 16 мс.
    Размер потока : 149 Мбайт (1%)
    Заголовок : AC3 (Многоголосый) СТС
    Язык : Russian
    Default : Нет
    Forced : Нет
    Аудио #5
    Идентификатор : 6
    Формат : AC-3
    Формат/Информация : Audio Coding 3
    Расширение режима : CM (complete main)
    Параметр Endianness формата : Big
    Идентификатор кодека : A_AC3
    Продолжительность : 1 ч. 48 м.
    Вид битрейта : Постоянный
    Битрейт : 192 Кбит/сек
    Каналы : 2 канала
    Расположение каналов : Front: L R
    Частота : 48, 0 КГц
    Частота кадров : 31, 250 кадров/сек (1536 spf)
    Метод сжатия : С потерями
    Задержка видео : 16 мс.
    Размер потока : 149 Мбайт (1%)
    Заголовок : AC3 (Двухголосый) НТВ+
    Язык : Russian
    Default : Нет
    Forced : Нет
    Аудио #6
    Идентификатор : 7
    Формат : AC-3
    Формат/Информация : Audio Coding 3
    Расширение режима : CM (complete main)
    Параметр Endianness формата : Big
    Идентификатор кодека : A_AC3
    Продолжительность : 1 ч. 48 м.
    Вид битрейта : Постоянный
    Битрейт : 448 Кбит/сек
    Каналы : 6 каналов
    Расположение каналов : Front: L C R, Side: L R, LFE
    Частота : 48, 0 КГц
    Частота кадров : 31, 250 кадров/сек (1536 spf)
    Метод сжатия : С потерями
    Задержка видео : 24 мс.
    Размер потока : 348 Мбайт (2%)
    Заголовок : AC3 (Одноголосый) А. Гаврилов
    Язык : Russian
    Default : Нет
    Forced : Нет
    Аудио #7
    Идентификатор : 8
    Формат : AC-3
    Формат/Информация : Audio Coding 3
    Расширение режима : CM (complete main)
    Параметр Endianness формата : Big
    Идентификатор кодека : A_AC3
    Продолжительность : 1 ч. 48 м.
    Вид битрейта : Постоянный
    Битрейт : 448 Кбит/сек
    Каналы : 6 каналов
    Расположение каналов : Front: L C R, Side: L R, LFE
    Частота : 48, 0 КГц
    Частота кадров : 31, 250 кадров/сек (1536 spf)
    Метод сжатия : С потерями
    Задержка видео : 24 мс.
    Размер потока : 348 Мбайт (2%)
    Заголовок : AC3 (Одноголосый) В. Горчаков
    Язык : Russian
    Default : Нет
    Forced : Нет
    Аудио #8
    Идентификатор : 9
    Формат : DTS
    Формат/Информация : Digital Theater Systems
    Режим : 16
    Параметр Endianness формата : Big
    Идентификатор кодека : A_DTS
    Продолжительность : 1 ч. 48 м.
    Вид битрейта : Постоянный
    Битрейт : 755 Кбит/сек
    Каналы : 6 каналов
    Расположение каналов : Front: L C R, Side: L R, LFE
    Частота : 48, 0 КГц
    Частота кадров : 93, 750 кадра/сек (512 spf)
    Битовая глубина : 24 бит
    Метод сжатия : С потерями
    Задержка видео : 3 мс.
    Размер потока : 586 Мбайт (3%)
    Заголовок : DTS (Одноголосый) А. Михалёв
    Язык : Russian
    Default : Нет
    Forced : Нет
    Аудио #9
    Идентификатор : 10
    Формат : DTS
    Формат/Информация : Digital Theater Systems
    Режим : 16
    Параметр Endianness формата : Big
    Идентификатор кодека : A_DTS
    Продолжительность : 1 ч. 48 м.
    Вид битрейта : Постоянный
    Битрейт : 755 Кбит/сек
    Каналы : 6 каналов
    Расположение каналов : Front: L C R, Side: L R, LFE
    Частота : 48, 0 КГц
    Частота кадров : 93, 750 кадра/сек (512 spf)
    Битовая глубина : 24 бит
    Метод сжатия : С потерями
    Задержка видео : 5 мс.
    Размер потока : 586 Мбайт (3%)
    Заголовок : DTS (Одноголосый) Д. Пучков
    Язык : Russian
    Default : Нет
    Forced : Нет
    Аудио #10
    Идентификатор : 11
    Формат : DTS
    Формат/Информация : Digital Theater Systems
    Режим : 16
    Параметр Endianness формата : Big
    Идентификатор кодека : A_DTS
    Продолжительность : 1 ч. 48 м.
    Вид битрейта : Постоянный
    Битрейт : 1509 Кбит/сек
    Каналы : 6 каналов
    Расположение каналов : Front: L C R, Side: L R, LFE
    Частота : 48, 0 КГц
    Частота кадров : 93, 750 кадра/сек (512 spf)
    Битовая глубина : 24 бит
    Метод сжатия : С потерями
    Размер потока : 1, 15 Гбайт (7%)
    Заголовок : DTS (Оригинал)
    Язык : English
    Default : Нет
    Forced : Нет
    Текст #1
    Идентификатор : 12
    Формат : UTF-8
    Идентификатор кодека : S_TEXT/UTF8
    Идентификатор кодека/Информация : UTF-8 Plain Text
    Заголовок : Русские
    Язык : Russian
    Default : Нет
    Forced : Нет
    Текст #2
    Идентификатор : 13
    Формат : UTF-8
    Идентификатор кодека : S_TEXT/UTF8
    Идентификатор кодека/Информация : UTF-8 Plain Text
    Заголовок : Английские
    Язык : English
    Default : Нет
    Forced : Нет

    Дополнительная информация

    Пока Карпентер снимал Побег из Нью-Йорка сценарист Билл Ланкастер вовсю работал над сценарием Нечто.
    В сцене, где герои фильма летят на вертолете в норвежский лагерь, можно заметить, что в определенном момент вертолет начинает вилять из стороны в сторону: в этот самый момент профессиональный пилот передал управление Курту Расселу.
    По первоначальной идее режиссера, МакРиди должен был быть бывшим военным пилотом, служившим во Вьетнаме.
    Изначально фильм был запрещен к показу в кинотеатрах Финляндии.
    В оригинальном фильме 1951 года действие происходило на северном полюсе. В картине Джона Карпентера действие происходит на южном полюсе.
    Изначально Дональд Плезенс должен был сыграть Блэра, однако он не смог принять участия в съёмках фильма из-за занятости на других проектах.
    Джед — кличка собаки, сыгравшей в фильме. Он был наполовину волком, наполовину лайкой.
    В фильме нет ни одного женского персонажа. Женское присутствие в фильме ограничивается голосом компьютера МакРиди и видеозаписью телепередачи, которую смотрит Палмер. По словам Джона Карпентера, в съёмочной группе была только одна женщина. Незадолго до начала съёмок она забеременела и вскоре покинула проект. Её заменили мужчиной.
    Нечто — это первый фильм в так называемой Трилогии Апокалипсиса Джона Карпентера. Две другие картины – Князь тьмы (1987) и В пасти безумия (1994).
    Начальные титры точно повторяют оригинальные титры фильма Ховарда Хоукса.
    В основе фильма лежит рассказ Джона В. Кэмпбелла Кто идет?.
    Данная картина стала первой в карьере Джона Карпентера, к которой он не написал музыку. Изначально Джерри Голдсмит должен был стать композитором, однако он выбыл из проекта. Эннио Морриконе заменил его и написал музыку, похожую на работы Карпентера.
    Цветок из плоти, который нападает на Чайлдса, содержит 12 лепестков в форме собачьих языков, дополненных рядами собачьих зубов. Создатель спецэффектов Роб Боттин прозвал его взбешенной капустой.
    Женский компьютерный голос принадлежит Эдриенн Барбо, жене Джона Карпентера на момент съёмок.
    По словам Джона Карпентера и Курта Рассела, они до сих пор не знают, кто из персонажей и когда был заменен пришельцем.
    Большая часть работы по созданию спецэффектов в сцене внутри клетки с собаками была проделана Стэном Уинстоном и его командой, т. к. Роб Боттин попал в больницу из-за переутомления.
    Видео норвежской экспедиции об инопланетном корабле, которое смотрят персонажи фильма, — это на самом деле отрывки из Нечто (1951).
    Звук антарктического ветра был записан в пустыне недалеко от Палм Спрингс.
    Курт Рассел чуть было серьезно не пострадал в сцене, где его персонаж бросает шашку с динамитом. Он не знал, насколько сильным будет взрыв, и поэтому его реакция на взрыв подлинная.
    Для сцены с откусыванием рук был приглашён дублёр с ампутированными руками.
    На момент создания Нечто специалисту по гриму Робу Боттину было всего 22 года.
    Практически все натурные сьёмки прошли в Британской Колумбии (Канада), где были построены специальные декорации.
    Сьёмочный период занял более девяти месяцев; по словам Карпентера, это наиболее трудоёмкий проект в его карьере.
    Для сцены в лагере норвежцев было снято два шокирующих эпизода. В первом из шкафа выпадал труп, а во втором герои натыкаются на тело, прибитое к двери гарпуном. Оба эпизода пришлось в итоге вырезать.
    Карпентер был большим фанатом рассказа-первоисточника, который он впервые прочёл ещё в школе, и во время сьёмок он старался придерживатся именно литературного первоисточника, а не оригинального фильма 1951 года, больше тяготевшей к инопланетной версии Франкенштейна.
    Несмотря на то, что выкупивший права на экранизацию рассказа телепродюсер Стюарт Кохен пытался убедить боссов Юниверсал пригласить в кресло режиссёра именно Карпентера, изначально планировалось, что фильм снимет Тоуб Хупер, но Кохэну не понравились его варианты сценария. Проект крутился в недрах Юниверсал с 75 по 79-й годы, пока на экраны не вышел ставший хитом Чужой. Стало ясно, что зрителю интересны подобные истории, и Нечто наконец дали зелёный свет.
    По словам сценариста Билла Ланкастера, ему не очень понравился рассказ. Он многое в нём изменил: количество персонажей, завязку сюжета и, конечно, концовку, ставшую гораздо более мрачной в сравнении с литературным первоисточником.
    При переработке концепции пришельца Карпентер поставил на существо, которое ничем не напоминает человека. Чтобы решить эту задачу, продюсеры пригласили легендарного иллюстратора Дейла Капперса. Он создал модели и эскизы Нечто, но в скором времени серьёзно заболел, и создателям картины пришлось искать ему замену. В итоге был выбран Роб Боттин, который изменил первоначальные задумки, создав в итоге одно из самых необычных и жутких страшилищ в мировом кино.
    Из фильма были вырезаны кое-какие диалоги и отдельные сцены с заражённой собакой, но в итоге они были включены в телевизионную версию.
    Многие актёры во время сьёмок постоянно простывали. Это было связано с тем, что в павильоне Юниверсал, где проходили внутренние сьёмки, температура специально понижалась, дабы изо рта актёров вырывался вполне реальный пар. Проблема состояла в том, что павильоны находились в Лос-Анджелесе, где на улицах было не меньше сорока градусов выше нуля. В итоге актёрам приходилось постоянно ощущать перепад температур.
    Премьера картины совпала по времени с премьерой семейной мелодрамы Инопланетянин Стивена Спилберга. Зрители предпочли видеть в пришельце друга, а не смертельно опасного врага, и в итоге Нечто лишилось возможности заработать более внушительную кассу.
    В начале фильма норвежец с ружьем говорит: Se til helvete og kom dere vekk. Det er ikke en bikkje, det er en slags ting! Det imiterer en bikkje, det er ikke virkelig! KOM DERE VEKK IDIOTER!! Что в переводе означает: Убирайтесь отсюда. Это не собака, это нечто другое. Оно всего лишь имитирует собаку! Убирайтесь отсюда, идиоты!!.
    Декорациями норвежского лагеря послужили декорации американского лагеря: было намного дешевле переделать сгоревшие и разрушенные декорации из концовки картины, чем построить новые.
    В сцене, где голова Норриса (Чарльз Хэллахан) отделяется от его тела, для построения модели головы и шеи Роб Боттин использовал легковоспламеняющиеся материалы. Во время съёмок по настоянию режиссера было добавлено больше огня, что привело к возгоранию всей комнаты. Никто не пострадал, однако сложная модель, на построение которой Роб потратил несколько месяцев, была полностью уничтожена.
    Для фильма был снят альтернативный финал, в котором МакРиди был спасен, а также успешно прошел тест на кровь, доказавший, что он человек. Данный финал был снят в целях предосторожности и никогда не использовался ни на одном показе фильма.

    Скриншоты:

    Размер скачиваемого торрента: 17.26 GB (18534024100 Bytes)

    Нечто/The Thing (1982) BDRip 1080p от Conchita Wurst | P, P2, A | Remastered
    загрузка...
    Рейтинг →
     (голосов: 1, оценка 4/5, голосовать можно 1 раз )

    Другие торренты по теме:

  • Нечто / Нечто из другого мира / The Thing From Another World (1951) DVDRip | P2 торрент скачать бесплатно
  • OST - Нечто / The Thing (2011 / 1982) FLAC торрент скачать бесплатно
  • Нечто / The Thing (1982) HDRip от Scarabey | P торрент скачать бесплатно
  • Нечто с двумя головами / The Thing with Two Heads (1972) DVDRip-AVC | L1 торрент скачать бесплатно
  • OST - Marco Beltrami - Нечто / The Thing (2011) FLAC скачать через торрент бесплатно
  • Нечто / The Thing (2011) BDRip 1080p | US Transfer торрент скачать бесплатно
  • Нечто / The Thing (1982) HDDVDRip 1080p скачать торрент бесплатно
  • Нечто / The Thing (1982) BDRemux 1080p | P, P2, A | Remastered скачать торрент бесплатно


    • Комментарии (0):

      Информация

      Информация

        Посетители, находящиеся в группе Гости, не могут оставлять комментарии в данной новости.

        ↓ Меню



        ↓ Опрос

        А Вы добавили сайт в закладки?
        Да
        Не


        Top 10 за неделю (Фильмы)