.
Авторизация | Регистрация
» » Свадебный угар / Mike and Dave Need Wedding Dates (2016) BDRip 720p от ExKinoRay | Лицензия скачать торрент бесплатно




    Свадебный угар / Mike and Dave Need Wedding Dates (2016) BDRip 720p от ExKinoRay | Лицензия скачать торрент бесплатно

    Опубликовал: Админ | Дата: 27-09-2016, 05:00 | Просмотров: 81



    Детально о кино
    Русское название: Свадебный угар
    Русское название в мировом прокате: Mike and Dave Need Wedding Dates
    Создали в: 2016
    Категория жанра: Комедия, мелодрама, приключения
    Главный режиссер: Джейк Зиманский

    Актеры
    Зак Эфрон, Адам Дивайн, Анна Кендрик, Обри Плаза, Стивен Рут, Стефани Фэраси, Стефани Бирд, Сэм Ричардсон, Элис Веттерлунд, Лавелл Кроуфорд
    О фильме:
    Братья-тусовщики Майк и Дэйв дают в интернете объявление о поиске пар, чтобы отправиться на свадьбу сестры на Гавайях. Они надеются на дикий отрыв, но выбранный ими дуэт девушек оказывается совершенно неконтролируемым, готовым превратить праздник в настоящий ад.

    Снималось в: США
    Киностудия: 20th Century Fox Film Corporation
    Время просмотра: 01: 38: 33
    Перевод текста: Дублированный | Лицензия Blu-Ray EUR
    Файл
    Кодек для видео: MPEG-4
    Качество фильма: BDRip 720p
    Информация о видео: 1280x536, 6490 Kbit/s, 23.976 fps
    Информация о звуке:
    Информация о звуке #01: 48 kHz, DTS, 5.1, 768 Kbps | Дублированный | Лицензия |
    Информация о звуке #02: 48 kHz, AC3, 5.1, 448 Kbps | Дублированный | Лицензия |
    Информация о звуке #03: 48 kHz, DTS, 5.1, 1510 kbps | Оригинал |
    Субтитры: Русские, английские
    MI
    General
    Unique ID : 192436415896031784824712131741813536055 (0x90C5E7D3DC14C3878031EE00A2F37537)
    Complete name : H: VideoНовая папка (2)Mike.and.Dave.Need.Wedding.Dates.2016.BDRip.720p.ExKinoRay.mkv
    Format : Matroska
    Format version : Version 4/Version 2
    File size : 6.34 GiB
    Duration : 1 h 38 min
    Overall bit rate : 9 214 kb/s
    Movie name : ***селезень***
    Encoded date : UTC 2016-09-26 15: 33: 23
    Writing application : mkvmerge v8.3.0 (;Over the Horizon;) 64bit
    Writing library : libebml v1.3.1 + libmatroska v1.4.2
    Video
    ID : 1
    Format : AVC
    Format/Info : Advanced Video Codec
    Format profile : High@L4.1
    Format settings, CABAC : Yes
    Format settings, ReFrames : 12 frames
    Codec ID : V_MPEG4/ISO/AVC
    Duration : 1 h 38 min
    Bit rate : 6 485 kb/s
    Width : 1 280 pixels
    Height : 536 pixels
    Display aspect ratio : 2.40: 1
    Frame rate mode : Constant
    Frame rate : 23.976 (24000/1001) FPS
    Color space : YUV
    Chroma subsampling : 4: 2: 0
    Bit depth : 8 bits
    Scan type : Progressive
    Bits/(Pixel*Frame) : 0.394
    Stream size : 4.46 GiB (70%)
    Title : ***селезень***
    Writing library : x264 core 148 r2705+54 9f484c1 t_mod_Custom 8-bit@all X86_64
    Encoding settings : cabac=1/ref=12/deblock=1: -3: -3/analyse=0x3: 0x133/me=umh/subme=11/psy=1/fade_compensate=0.00/psy_rd=1.05: 0.00/mixed_ref=1/me_range=32/chroma_me=1/trellis=2/8x8dct=1/cqm=0/deadzone=21, 11/fast_pskip=0/chroma_qp_offset=-2/threads=12/lookahead_threads=2/sliced_threads=0/nr=0/decimate=0/interlaced=0/bluray_compat=0/constrained_intra=0/fgo=0/bframes=8/b_pyramid=2/b_adapt=2/b_bias=0/direct=3/weightb=1/open_gop=0/weightp=2/keyint=250/keyint_min=23/scenecut=40/intra_refresh=0/rc_lookahead=60/rc=crf/mbtree=0/crf=16.0000/qcomp=0.65/qpmin=0: 0: 0/qpmax=69: 69: 69/qpstep=4/vbv_maxrate=62500/vbv_bufsize=78125/crf_max=0.0/nal_hrd=none/filler=0/ip_ratio=1.30/pb_ratio=1.20/aq=3: 0.80/aq-sensitivity=10.00/aq-factor=1.00: 1.00: 1.00/aq2=0/aq3=0/zones=48, 552, crf=13/138270, 141760, crf=22
    Language : English
    Default : Yes
    Forced : No
    Color range : Limited
    Matrix coefficients : BT.709
    Audio #1
    ID : 2
    Format : DTS
    Format/Info : Digital Theater Systems
    Mode : 16
    Format settings, Endianness : Big
    Codec ID : A_DTS
    Duration : 1 h 38 min
    Bit rate mode : Constant
    Bit rate : 768 kb/s
    Channel(s) : 6 channels
    Channel positions : Front: L C R, Side: L R, LFE
    Sampling rate : 48.0 kHz
    Frame rate : 93.750 FPS (512 spf)
    Bit depth : 24 bits
    Compression mode : Lossy
    Stream size : 541 MiB (8%)
    Title : Dub-DTS Blu-Ray EUR
    Language : Russian
    Default : Yes
    Forced : No
    Audio #2
    ID : 3
    Format : AC-3
    Format/Info : Audio Coding 3
    Mode extension : CM (complete main)
    Format settings, Endianness : Big
    Codec ID : A_AC3
    Duration : 1 h 38 min
    Bit rate mode : Constant
    Bit rate : 448 kb/s
    Channel(s) : 6 channels
    Channel positions : Front: L C R, Side: L R, LFE
    Sampling rate : 48.0 kHz
    Frame rate : 31.250 FPS (1536 spf)
    Compression mode : Lossy
    Stream size : 316 MiB (5%)
    Title : Dub-AC3 Blu-Ray EUR
    Language : Russian
    Default : No
    Forced : No
    Audio #3
    ID : 4
    Format : DTS
    Format/Info : Digital Theater Systems
    Mode : 16
    Format settings, Endianness : Big
    Codec ID : A_DTS
    Duration : 1 h 38 min
    Bit rate mode : Constant
    Bit rate : 1 509 kb/s
    Channel(s) : 6 channels
    Channel positions : Front: L C R, Side: L R, LFE
    Sampling rate : 48.0 kHz
    Frame rate : 93.750 FPS (512 spf)
    Bit depth : 24 bits
    Compression mode : Lossy
    Stream size : 1.04 GiB (16%)
    Title : Original
    Language : English
    Default : No
    Forced : No
    Text #1
    ID : 5
    Format : UTF-8
    Codec ID : S_TEXT/UTF8
    Codec ID/Info : UTF-8 Plain Text
    Duration : 1 h 37 min
    Bit rate : 149 b/s
    Count of elements : 2204
    Stream size : 107 KiB (0%)
    Title : Full
    Language : Russian
    Default : No
    Forced : No
    Text #2
    ID : 6
    Format : UTF-8
    Codec ID : S_TEXT/UTF8
    Codec ID/Info : UTF-8 Plain Text
    Duration : 1 h 37 min
    Bit rate : 97 b/s
    Count of elements : 2534
    Stream size : 69.9 KiB (0%)
    Title : Full
    Language : English
    Default : No
    Forced : No
    Text #3
    ID : 7
    Format : UTF-8
    Codec ID : S_TEXT/UTF8
    Codec ID/Info : UTF-8 Plain Text
    Duration : 1 h 38 min
    Bit rate : 103 b/s
    Count of elements : 2694
    Stream size : 74.4 KiB (0%)
    Title : SDH
    Language : English
    Default : No
    Forced : No
    Menu
    00: 00: 00.000 : en: Chapter 1
    00: 03: 39.511 : en: Chapter 2
    00: 08: 12.826 : en: Chapter 3
    00: 11: 26.102 : en: Chapter 4
    00: 17: 29.340 : en: Chapter 5
    00: 22: 33.477 : en: Chapter 6
    00: 27: 22.432 : en: Chapter 7
    00: 31: 29.179 : en: Chapter 8
    00: 35: 23.204 : en: Chapter 9
    00: 38: 17.212 : en: Chapter 10
    00: 41: 26.442 : en: Chapter 11
    00: 44: 25.538 : en: Chapter 12
    00: 50: 22.811 : en: Chapter 13
    00: 54: 12.833 : en: Chapter 14
    00: 56: 53.660 : en: Chapter 15
    01: 01: 16.131 : en: Chapter 16
    01: 04: 44.214 : en: Chapter 17
    01: 08: 24.058 : en: Chapter 18
    01: 12: 28.886 : en: Chapter 19
    01: 16: 33.339 : en: Chapter 20
    01: 21: 08.614 : en: Chapter 21
    01: 25: 30.542 : en: Chapter 22
    01: 28: 45.987 : en: Chapter 23
    01: 33: 51.084 : en: Chapter 24


    Релиз подготовил: Автор релиза:

    Онлайн видео Свадебный угар


    Размер скачиваемого торрента: 6.34 GB (6810142712 Bytes)

    Свадебный угар/Mike and Dave Need Wedding Dates (2016) BDRip 720p от ExKinoRay | Лицензия
    загрузка...
    Рейтинг →
     (голосов: 1, оценка 5/5, голосовать можно 1 раз )

    Другие торренты по теме:



      Комментарии (0):

      Информация

      Информация

        Посетители, находящиеся в группе Гости, не могут оставлять комментарии в данной новости.

        ↓ Меню



        ↓ Опрос

        А Вы добавили сайт в закладки?
        Да
        Не


        Top 10 за неделю (Фильмы)