.
Авторизация | Регистрация
Хочешь лучшие торренты? Добавь свой email!
Добавить
» » Мистер и миссис Смит / Mr. and Mrs. Smith (2005) HDRip от Portablius | D торрент скачать бесплатно




    Мистер и миссис Смит / Mr. and Mrs. Smith (2005) HDRip от Portablius | D торрент скачать бесплатно

    Опубликовал: Админ | Дата: 28-09-2016, 05:01 | Просмотров: 65



    Детально о кино
    Русское название: Мистер и миссис Смит
    Русское название в мировом прокате: Mr. and Mrs. Smith
    Создали в: 2005
    Категория жанра: Боевик, Триллер, Мелодрама, Комедия
    Главный режиссер: Даг Лайман

    Актеры
    Брэд Питт (John Smith), Анджелина Джоли (Jane Smith), Винс Вон (Eddie), Адам Броди (Benjamin Danz), Керри Вашингтон (Jasmine), Кит Дэвид (Father), Крис Вайц (Martin Coleman), Рэйчел Хантли (Suzy Coleman), Мишель Монахэн (Gwen), Стефани Марч (Julie - Associate #1), Дженнифер Моррисон (Jade - Associate #2), Тереза Баррера (Janet - Associate #3).
    Режиссёр: Даг Лайман/Doug Liman

    Сюжет фильма
    Обычная супружеская пара оказывается союзом двух наемных убийц, долгое время не догадывавшихся о профессии друг друга. Супруги-киллеры работают на конкурирующие организации, и однажды муж получает задание уничтожить свою жену, а она – уничтожить его.

    Снималось в: США
    Киностудия: Epsilon Motion Pictures, New Regency Pictures, Regency Enterprises, Summit Entertainment, Weed Road Pictures
    Время просмотра: 01: 59: 58
    Перевод текста: Профессиональный (полное дублирование) BD CEE | Лицензия
    Субтитры: Нет
    Семпл
    Файл
    Кодек для видео: XviD
    Качество фильма: HDRip
    Информация о видео: 688x288 (2.39: 1), 23.976 fps, XviD build 73 ~730 kbps avg, 0.15 bit/pixel
    Информация о звуке: 48 kHz, MPEG Layer 3, 2 ch, ~128.00 kbps avg
    MediaInfo
    Общее
    Полное имя : Mr.and Mrs.Smith.2005.HDRip.ot.Portablius.avi
    Формат : AVI
    Формат/Информация : Audio Video Interleave
    Размер файла : 745 Мбайт
    Продолжительность : 1 ч. 59 м.
    Общий поток : 868 Кбит/сек
    Программа кодирования : VirtualDubMod 1.5.10.3 | www.virtualdub-fr.org || (build 2550/release)
    Библиотека кодирования : VirtualDubMod build 2550/release
    Видео
    Идентификатор : 0
    Формат : MPEG-4 Visual
    Профиль формата : Advanced Simple@L5
    Параметр BVOP формата : 1
    Параметр QPel формата : Нет
    Параметр GMC формата : Без точки перехода
    Параметр матрицы формата : Выборочная
    Идентификатор кодека : XVID
    Идентификатор кодека/Подсказка : XviD
    Продолжительность : 1 ч. 59 м.
    Битрейт : 731 Кбит/сек
    Ширина : 688 пикселей
    Высота : 288 пикселей
    Соотношение сторон : 2, 40: 1
    Частота кадров : 23, 976 (23976/1000) кадра/сек
    Цветовое пространство : YUV
    Субдискретизация насыщенности : 4: 2: 0
    Битовая глубина : 8 бит
    Тип развёртки : Прогрессивная
    Метод сжатия : С потерями
    Бит/(Пиксели*Кадры) : 0.154
    Размер потока : 627 Мбайт (84%)
    Библиотека кодирования : XviD 73
    Аудио
    Идентификатор : 1
    Формат : MPEG Audio
    Версия формата : Version 1
    Профиль формата : Layer 3
    Идентификатор кодека : 55
    Идентификатор кодека/Подсказка : MP3
    Продолжительность : 1 ч. 59 м.
    Вид битрейта : Постоянный
    Битрейт : 128 Кбит/сек
    Каналы : 2 канала
    Частота : 48, 0 КГц
    Метод сжатия : С потерями
    Размер потока : 110 Мбайт (15%)
    Выравнивание : Соединение по промежуткам
    Продолжительность промежутка : 42 мс. (1, 00 видеокадр)
    Время предзагрузки промежутка : 504 мс.
    Библиотека кодирования : LAME3.99r
    Залил: Evgen Portable

    Онлайн видео Мистер и миссис Смит


    Размер скачиваемого торрента: 744.86 MB (781037568 Bytes)


    Мистер и миссис Смит/Mr. and Mrs. Smith (2005) HDRip от Portablius | D
    загрузка...
    Рейтинг →
     (голосов: 1, оценка 5/5, голосовать можно 1 раз )

    Другие торренты по теме:

  • Мистер и миссис Смит / Mr. and Mrs. Smith (2005) HDRip от Scarabey | P | Режиссерская версия
  • Мистер и миссис Смит / Mr. and Mrs. Smith (2005) BDRip-AVC от 0ptimus | P, P2, A | Режиссерская версия / Directors Cut
  • Мистер и миссис Смит / Mr. Mrs. Smith (2005) BDRip 720p | Directors Cut | P, P2, A
  • Мистер и миссис Смит / Mr. Mrs. Smith (2005) HDRip-AVC от WazZzup | P скачать через торрент бесплатно
  • Мистер и миссис Игрок / Lan gun fu dou lan gun qi (2013) HDRip | L1
  • Мистер и миссис Смит / Mr. and Mrs. Smith (2005) BDRip 720p от HQCLUB | Лицензия
  • Мистер и миссис Смит / Mr. & Mrs. Smith / 1941 / ПМ / DVDRip
  • Мистер и миссис Z (2017) WEB-DL 720p от Files-х


    • Комментарии (0):

      Информация

      Информация

        Посетители, находящиеся в группе Гости, не могут оставлять комментарии в данной новости.

        ↓ Меню



        ↓ Опрос

        А Вы добавили сайт в закладки?
        Да
        Не


        Top 10 за месяц (Фильмы)