.
Авторизация | Регистрация
Хочешь лучшие торренты? Добавь свой email!
Добавить
» » Паника / Panic (2000) WEB-DLRip от Portablius | P торрент скачать бесплатно




    Паника / Panic (2000) WEB-DLRip от Portablius | P торрент скачать бесплатно

    Опубликовал: Админ | Дата: 29-09-2016, 05:01 | Просмотров: 35



    Детально о кино
    Русское название: Паника
    Русское название в мировом прокате: Panic
    Создали в: 2000
    Категория жанра: Триллер, драма, комедия, криминал
    Главный режиссер: Генри Бромелл

    Актеры
    Уильям Х. Мэйси, Джон Риттер, Нив Кэмпбелл, Дональд Сазерленд, Трейси Уллмен, Барбара Бэйн, Дэвид Дорфман, Тина Лиффорд, Бикс Барнаба, Николь Том

    Сюжет фильма
    Их семейный бизнес приносил хорошие деньги: убийство по найму — дорогая работа. Но однажды Алекс решил завязать. Он почувствовал, что устал. Устал убивать. Но не учел одного, что его отец так или иначе найдет способ устранить проблему, чтобы спасти дело, которому посвятил всю свою жизнь.

    Снималось в: США
    Киностудия: Artisan Entertainment, Mad Chance, The Vault, Tin Toy Productions LLC
    Время просмотра: 01: 27: 53
    Перевод текста: Профессиональный (многоголосый, закадровый)
    Субтитры: Нет
    Семпл
    Файл
    Кодек для видео: XviD
    Качество фильма: WEB-DLRip
    Информация о видео: 704x288 (2.44: 1), 23.976 fps, XviD build 73 ~982 kbps avg, 0.20 bit/pixel
    Информация о звуке: 48 kHz, MPEG Layer 3, 2 ch, ~192.00 kbps avg
    MediaInfo
    Общее
    Полное имя : Panic.2000.WEB-DLRip.ot.Portablius.avi
    Формат : AVI
    Формат/Информация : Audio Video Interleave
    Размер файла : 744 Мбайт
    Продолжительность : 1 ч. 27 м.
    Общий поток : 1184 Кбит/сек
    Программа кодирования : VirtualDubMod 1.5.10.3 | www.virtualdub-fr.org || (build 2550/release)
    Библиотека кодирования : VirtualDubMod build 2550/release
    Видео
    Идентификатор : 0
    Формат : MPEG-4 Visual
    Профиль формата : Advanced Simple@L5
    Параметр BVOP формата : 1
    Параметр QPel формата : Нет
    Параметр GMC формата : Без точки перехода
    Параметр матрицы формата : Выборочная
    Идентификатор кодека : XVID
    Идентификатор кодека/Подсказка : XviD
    Продолжительность : 1 ч. 27 м.
    Битрейт : 982 Кбит/сек
    Ширина : 704 пикселя
    Высота : 288 пикселей
    Соотношение сторон : 2, 40: 1
    Частота кадров : 23, 976 (23976/1000) кадра/сек
    Цветовое пространство : YUV
    Субдискретизация насыщенности : 4: 2: 0
    Битовая глубина : 8 бит
    Тип развёртки : Прогрессивная
    Метод сжатия : С потерями
    Бит/(Пиксели*Кадры) : 0.202
    Размер потока : 617 Мбайт (83%)
    Библиотека кодирования : XviD 73
    Аудио
    Идентификатор : 1
    Формат : MPEG Audio
    Версия формата : Version 1
    Профиль формата : Layer 3
    Идентификатор кодека : 55
    Идентификатор кодека/Подсказка : MP3
    Продолжительность : 1 ч. 27 м.
    Вид битрейта : Постоянный
    Битрейт : 192 Кбит/сек
    Каналы : 2 канала
    Частота : 48, 0 КГц
    Метод сжатия : С потерями
    Размер потока : 121 Мбайт (16%)
    Выравнивание : Соединение по промежуткам
    Продолжительность промежутка : 42 мс. (1, 00 видеокадр)
    Время предзагрузки промежутка : 504 мс.
    Библиотека кодирования : LAME3.99r
    Залил: Evgen Portable

    Онлайн видео Паника


    Размер скачиваемого торрента: 743.96 MB (780093440 Bytes)


    Паника/Panic (2000) WEB-DLRip от Portablius | P
    загрузка...
    Рейтинг →
     (голосов: 1, оценка 5/5, голосовать можно 1 раз )

    Другие торренты по теме:

  • Паника на улицах / Panic in the Streets (1950) HDRip от NovaLan
  • Паника в Нидл Парк / The Panic in Needle Park (1971) HDRip от MegaPeer | P2
  • Паника в нулевом году / Panic in Year Zero! (1962) HDRip от Koenig | L1


    • Комментарии (0):

      Информация

      Информация

        Посетители, находящиеся в группе Гости, не могут оставлять комментарии в данной новости.

        ↓ Меню



        ↓ Опрос

        А Вы добавили сайт в закладки?
        Да
        Не


        Top 10 за месяц (Фильмы)