.
Авторизация | Регистрация
Хочешь лучшие торренты? Добавь свой email!
Добавить
» » Гиена / Hyena (2014) WEB-DL 720p от Переулка Переводмана | А торрент скачать бесплатно




    Гиена / Hyena (2014) WEB-DL 720p от Переулка Переводмана | А торрент скачать бесплатно

    Опубликовал: Админ | Дата: 29-09-2016, 05:01 | Просмотров: 32



    Русское название: Гиена
    Русское название в мировом прокате: Hyena
    Создали в: 2014
    Снималось в: Великобритания
    Киностудия: Film4, Number 9 Films
    Время просмотра: 01: 52: 29
    Категория жанра: драма, криминал, ...
    Главный режиссер: Герард Джонсон

    Актеры
    Питер Фердинандо, Стивен Грэм, Нил Мэскелл, Элиза Ласовски, МайАнна Бёринг, Ричард Дормер, Гордон Браун, Тони Питтс, Орли Шука, Джеват Келменди, ...
    Перевод текста: Авторский (одноголосый, закадровый) Чадов Михаил

    Сюжет фильма
    Быть хорошим полицейским не означает делать все по учебнику. Но, когда преступная деятельность в Лондоне идет на пользу албанцам и туркам, как выжить хорошему полицейскому?…
    Жесткая криминальная драма. В комплекте все атрибуты жанра: кровь, обнаженка, мат...

    Кодек для видео: MPEG-4 AVC
    Качество фильма: WEB-DL 720p
    Информация о видео: 1280x716, 3976 kbps, 23, 976 fps
    Информация о звуке #1: AC-3, 6 ch, 384 kbps (Rus) - AVO Чадов Михаил
    Информация о звуке #2: AC-3, 6 ch, 384 kbps (Eng)
    Субтитры: Английские
    Дополнительная информация
    Перевод и озвучка Михаила Чадовастали доступны благодаря Переулку Переводманаи следующим его пользователям: Star Dog, Антиквар, kidman644, ana2363, MaXim, 7654, Indian1990, iVov4ik, karbofos, Drowse Reloaded, Бениамин.
    Постер: Ольга Левицкая

    MediaInfo
    Общее
    Уникальный идентификатор : 214350420619019404392119164871053146943 (0xA14263AD811F9ABFB2EC67723173FB3F)
    Полное имя : Гиена (Hyena) 2014 WEB-DL 720p.mkv
    Формат : Matroska
    Версия формата : Version 2
    Размер файла : 3, 80 Гбайт
    Продолжительность : 1 ч. 52 м.
    Общий поток : 4840 Кбит/сек
    Дата кодирования : UTC 2016-09-25 13: 20: 08
    Программа кодирования : mkvmerge v4.0.0 (;The Stars were mine;) сборка от Jun 6 2010 16: 18: 42
    Библиотека кодирования : libebml v1.0.0 + libmatroska v1.0.0
    Видео
    Идентификатор : 1
    Формат : AVC
    Формат/Информация : Advanced Video Codec
    Профиль формата : High@L3.1
    Параметр CABAC формата : Нет
    Параметр ReFrames формата : 2 кадра
    Идентификатор кодека : V_MPEG4/ISO/AVC
    Продолжительность : 1 ч. 52 м.
    Битрейт : 3976 Кбит/сек
    Ширина : 1280 пикселей
    Высота : 716 пикселей
    Соотношение сторон : 16: 9
    Режим частоты кадров : Постоянный
    Частота кадров : 23, 976 кадра/сек
    Цветовое пространство : YUV
    Субдискретизация насыщенности : 4: 2: 0
    Битовая глубина : 8 бит
    Тип развёртки : Прогрессивная
    Бит/(Пиксели*Кадры) : 0.181
    Размер потока : 3, 12 Гбайт (82%)
    Язык : English
    Default : Нет
    Forced : Нет
    Цветовой диапазон : Limited
    Основные цвета : BT.709
    Характеристики трансфера : BT.709
    Коэффициенты матрицы : BT.709
    Аудио #1
    Идентификатор : 2
    Формат : AC-3
    Формат/Информация : Audio Coding 3
    Расширение режима : CM (complete main)
    Параметр Endianness формата : Big
    Идентификатор кодека : A_AC3
    Продолжительность : 1 ч. 52 м.
    Вид битрейта : Постоянный
    Битрейт : 384 Кбит/сек
    Каналы : 6 каналов
    Расположение каналов : Front: L C R, Side: L R, LFE
    Частота : 48, 0 КГц
    Частота кадров : 31, 250 кадров/сек (1536 spf)
    Метод сжатия : С потерями
    Размер потока : 309 Мбайт (8%)
    Заголовок : AVO Чадов Михаил
    Язык : Russian
    Default : Нет
    Forced : Нет
    Аудио #2
    Идентификатор : 3
    Формат : AC-3
    Формат/Информация : Audio Coding 3
    Расширение режима : CM (complete main)
    Параметр Endianness формата : Big
    Идентификатор кодека : A_AC3
    Продолжительность : 1 ч. 52 м.
    Вид битрейта : Постоянный
    Битрейт : 384 Кбит/сек
    Каналы : 6 каналов
    Расположение каналов : Front: L C R, Side: L R, LFE
    Частота : 48, 0 КГц
    Частота кадров : 31, 250 кадров/сек (1536 spf)
    Метод сжатия : С потерями
    Размер потока : 309 Мбайт (8%)
    Язык : English
    Default : Нет
    Forced : Нет
    Текст
    Идентификатор : 4
    Формат : UTF-8
    Идентификатор кодека : S_TEXT/UTF8
    Идентификатор кодека/Информация : UTF-8 Plain Text
    Язык : English
    Default : Нет
    Forced : Нет



    Залил: seregaanarhist
    Размер скачиваемого торрента: 3.80 GB (4083355440 Bytes)

    Гиена/Hyena (2014) WEB-DL 720p от Переулка Переводмана | А
    загрузка...
    Рейтинг →
     (голосов: 1, оценка 3/5, голосовать можно 1 раз )

    Другие торренты по теме:

  • Гиена / Hyena (2014) HDRip-AVC | А
  • Гиена / Hyena (2014) BDRip 1080p от Переулка Переводмана | А
  • Гиена / Hyena (2014) BD-Remux 1080p от FreeRutor | A
  • Бесстрашная гиена / Fearless Hyena / Xiao quan guai zhao (1979) BDRip от HQCLUB


    • Комментарии (0):

      Информация

      Информация

        Посетители, находящиеся в группе Гости, не могут оставлять комментарии в данной новости.

        ↓ Меню



        ↓ Опрос

        А Вы добавили сайт в закладки?
        Да
        Не


        Top 10 за месяц (Фильмы)