.
Авторизация | Регистрация
Хочешь лучшие торренты? Добавь свой email!
Добавить
» » Тарзан. Легенда / The Legend of Tarzan (2016) DVD-9 от NovaLan | iTunes торрент скачать бесплатно




    Тарзан. Легенда / The Legend of Tarzan (2016) DVD-9 от NovaLan | iTunes торрент скачать бесплатно

    Опубликовал: Админ | Дата: 29-09-2016, 16:40 | Просмотров: 41



    Детально о кино
    Русское название: Тарзан. Легенда
    Русское название в мировом прокате: The Legend of Tarzan
    Создали в: 2016
    Категория жанра: Приключения
    Главный режиссер: Дэвид Йэтс

    Актеры
    Александр Скарсгард, Рори Дж. Сапер, Кристоф Вальц, Сэмюэл Л. Джексон, Марго Робби, Ози Икхайл, Менс-Сана Тамакло, Энтони Ачеампонг
    Описание: Прошли годы с тех пор, как человек, когда-то известный как Тарзан, покинул африканские джунгли ради жизни под именем Джона Клейтона III, лорда Грейстока, с любимой женой Джейн. Его приглашают обратно в Конго, чтобы выступить в качестве торгового эмиссара Парламента; но он не подозревает, что является пешкой в смертельной игре, где за ниточки дергает ради своей корысти капитан Леон Ром. Но те, кто задумал убийственный заговор, понятия не имеют, с чем они столкнутся.
    Снималось в: США, Великобритания, Канада
    Киностудия: Dark Horse Entertainment, Jerry Weintraub Productions, Riche Productions
    Время просмотра: 01: 49: 52
    Перевод текста: Дублированный, профессиональный многоголосый (Omskbird records)
    Файл
    Кодек для видео: MPEG-2
    Качество фильма: DVD-9
    Информация о видео: MPEG2, NTSC 16: 9 (720x480@853x480) VBR, 29, 970 кадра/сек
    Информация о звуке: Русский/Английский/Испанский DD 5.1 (384 Kbps), Русский DD 5.1 (448 Kbps)

    Меню
    DVDInfo

    Title:
    Size: 6.36 Gb ( 6 669 920 KBytes ) - DVD-9
    Enabled regions: 1, 2, 3, 4, 5, 6, 7, 8
    VTS_01 :
    Play Length: 01: 49: 52+00: 15: 09+00: 02: 29+00: 01: 30
    Video: NTSC 16: 9 (720x480) VBR, Auto PanScan
    Audio:
    Russian (Dolby AC3, 6 ch)
    Russian (Dolby AC3, 6 ch)
    English (Dolby AC3, 6 ch)
    Espanol (Dolby AC3, 6 ch)
    Menu Video:
    NTSC 4: 3 (704x480) VBR
    Menu English Language Unit :
    Root Menu
    MediaInfo

    Общее
    Полное имя : D: ААА2ТАРЗАН ЛЕГЕНДАVIDEO_TSVTS_01_1.VOB
    Формат : MPEG-PS
    Размер файла : 1000 Мбайт
    Продолжительность : 18 м.
    Режим общего битрейта : Переменный
    Общий поток : 7496 Кбит/сек
    Видео
    Идентификатор : 224 (0xE0)
    Формат : MPEG Video
    Версия формата : Version 2
    Профиль формата : Main@Main
    Параметр BVOP формата : Да
    Параметр матрицы формата : По умолчанию
    Параметр GOP формата : M=3, N=12
    Продолжительность : 18 м.
    Вид битрейта : Переменный
    Битрейт : 5746 Кбит/сек
    Максимальный битрейт : 7880 Кбит/сек
    Ширина : 720 пикселей
    Высота : 480 пикселей
    Соотношение сторон : 16: 9
    Частота кадров : 23, 976 кадра/сек
    Стандарт вещания : NTSC
    Цветовое пространство : YUV
    Субдискретизация насыщенности : 4: 2: 0
    Битовая глубина : 8 бит
    Тип развёртки : Прогрессивная
    Порядок развёртки : 2: 3 Pulldown
    Метод сжатия : С потерями
    Бит/(Пиксели*Кадры) : 0.694
    TimeCode_FirstFrame : 00: 00: 00;00
    TimeCode_Source : Group of pictures t_head
    Размер потока : 767 Мбайт (77%)
    Аудио #1
    Идентификатор : 189 (0xBD)-128 (0x80)
    Формат : AC-3
    Формат/Информация : Audio Coding 3
    Расширение режима : CM (complete main)
    Параметр Endianness формата : Big
    Режим смешивания : DVD-Video
    Продолжительность : 18 м.
    Вид битрейта : Постоянный
    Битрейт : 384 Кбит/сек
    Каналы : 6 каналов
    Расположение каналов : Front: L C R, Side: L R, LFE
    Частота : 48, 0 КГц
    Битовая глубина : 16 бит
    Метод сжатия : С потерями
    Размер потока : 51, 2 Мбайт (5%)
    Аудио #2
    Идентификатор : 189 (0xBD)-129 (0x81)
    Формат : AC-3
    Формат/Информация : Audio Coding 3
    Расширение режима : CM (complete main)
    Параметр Endianness формата : Big
    Режим смешивания : DVD-Video
    Продолжительность : 18 м.
    Вид битрейта : Постоянный
    Битрейт : 448 Кбит/сек
    Каналы : 6 каналов
    Расположение каналов : Front: L C R, Side: L R, LFE
    Частота : 48, 0 КГц
    Битовая глубина : 16 бит
    Метод сжатия : С потерями
    Размер потока : 59, 8 Мбайт (6%)
    Аудио #3
    Идентификатор : 189 (0xBD)-130 (0x82)
    Формат : AC-3
    Формат/Информация : Audio Coding 3
    Расширение режима : CM (complete main)
    Параметр Endianness формата : Big
    Режим смешивания : DVD-Video
    Продолжительность : 18 м.
    Вид битрейта : Постоянный
    Битрейт : 384 Кбит/сек
    Каналы : 6 каналов
    Расположение каналов : Front: L C R, Side: L R, LFE
    Частота : 48, 0 КГц
    Битовая глубина : 16 бит
    Метод сжатия : С потерями
    Размер потока : 51, 2 Мбайт (5%)
    Аудио #4
    Идентификатор : 189 (0xBD)-131 (0x83)
    Формат : AC-3
    Формат/Информация : Audio Coding 3
    Расширение режима : CM (complete main)
    Параметр Endianness формата : Big
    Режим смешивания : DVD-Video
    Продолжительность : 18 м.
    Вид битрейта : Постоянный
    Битрейт : 384 Кбит/сек
    Каналы : 6 каналов
    Расположение каналов : Front: L C R, Side: L R, LFE
    Частота : 48, 0 КГц
    Битовая глубина : 16 бит
    Метод сжатия : С потерями
    Размер потока : 51, 2 Мбайт (5%)
    Меню
    Скриншоты



    Релиз:
    Залил: YArl

    Онлайн видео Тарзан. Легенда


    Размер скачиваемого торрента: 6.36 GB (6829998080 Bytes)

    Тарзан. Легенда/The Legend of Tarzan (2016) DVD-9 от NovaLan | iTunes
    загрузка...
    Рейтинг →
     (голосов: 1, оценка 5/5, голосовать можно 1 раз )

    Другие торренты по теме:

  • Тарзан. Легенда (2016)
  • Тарзан. Легенда / The Legend of Tarzan (2016) WEBRip | звук с TS
  • Тарзан. Легенда / The Legend of Tarzan (2016) WEBRip | L
  • Тарзан. Легенда / The Legend of Tarzan (2016) WEBRip 720p | Line
  • Тарзан. Легенда / The Legend of Tarzan / 2016 / ДБ (Line) / HDTVRip
  • Тарзан. Легенда / The Legend of Tarzan (2016) WEB-DLRip | iTunes
  • Тарзан. Легенда / The Legend of Tarzan (2016) WEB-DL 720p | iTunes
  • Тарзан. Легенда / The Legend of Tarzan (2016) WEB-DL 1080p | iTunes


    • Комментарии (0):

      Информация

      Информация

        Посетители, находящиеся в группе Гости, не могут оставлять комментарии в данной новости.

        ↓ Меню



        ↓ Опрос

        А Вы добавили сайт в закладки?
        Да
        Не


        Top 10 за месяц (Фильмы)