.
Авторизация | Регистрация
Хочешь лучшие торренты? Добавь свой email!
Добавить
» » День независимости: Возрождение / Independence Day: Resurgence (2016) WEB-DLRip от ImperiaFilm | КПК | iTunes торрент скачать бесплатно




    День независимости: Возрождение / Independence Day: Resurgence (2016) WEB-DLRip от ImperiaFilm | КПК | iTunes торрент скачать бесплатно

    Опубликовал: Админ | Дата: 30-09-2016, 05:00 | Просмотров: 50



    Детально о кино
    Русское название: День независимости: Возрождение
    Русское название в мировом прокате: Independence Day: Resurgence
    Создали в: 2016
    Категория жанра: Фантастика, боевик, приключения
    Главный режиссер: Роланд Эммерих

    Актеры
    Лиам Хемсворт, Джефф Голдблюм, Джесси Ашер, Билл Пуллман, Майка Монро, Села Уорд, Уильям Фихтнер, Джадд Хёрш, Брент Спайнер, Патрик Ст. Эсприт
    Роли дублировали: Александр Разбаш, Давид Бродский, Глеб Гаврилов, Валентин Морозов, Екатерина Тихомирова...

    Сюжет фильма

    Два десятилетия прошло с момента нашествия инопланетян на Землю. Благодаря технологиям пришельцев человечество в своем развитии шагнуло далеко вперед. Но никакое совершенное оружие не способно остановить второе вторжение беспощадных монстров из космоса. Судьба цивилизации в руках горстки отважных героев – смогут ли они спасти нашу планету от истребления?

    Снималось в: США
    Киностудия: 20th Century Fox Film Corporation
    Время просмотра: 02: 00: 11
    Перевод текста: Дублированный | iTunes
    Файл
    Кодек для видео: h264
    Качество фильма: WEB-DLRip| КПК
    Информация о видео: MPEG4 Video (H264), 496x208, 24fps, 500kbps, 0.202 Bits/Pixel
    Информация о звуке: AAC lc, 44100 Hz, 2ch, 126 kb/s
    Субтитры: Отсутствуют
    Семпл
    MI
    General
    Complete name : E: Изготовление рипаIndependence.Day.Resurgence.2016.WEB-DLrip by shkiper.mp4
    Format : MPEG-4
    Format profile : Base Media
    Codec ID : isom (isom/avc1)
    File size : 540 MiB
    Duration : 2h 0mn
    Overall bit rate mode : Variable
    Overall bit rate : 628 Kbps
    Encoded date : UTC 2016-09-28 11: 34: 30
    Tagged date : UTC 2016-09-28 11: 34: 30
    Video
    ID : 1
    Format : AVC
    Format/Info : Advanced Video Codec
    Format profile : Baseline@L3
    Format settings, CABAC : No
    Format settings, ReFrames : 1 frame
    Codec ID : avc1
    Codec ID/Info : Advanced Video Coding
    Duration : 2h 0mn
    Bit rate : 500 Kbps
    Maximum bit rate : 2 276 Kbps
    Width : 496 pixels
    Height : 208 pixels
    Display aspect ratio : 2.40: 1
    Frame rate mode : Constant
    Frame rate : 24.000 fps
    Color space : YUV
    Chroma subsampling : 4: 2: 0
    Bit depth : 8 bits
    Scan type : Progressive
    Bits/(Pixel*Frame) : 0.202
    Stream size : 430 MiB (80%)
    Title : Imported with GPAC 0.4.6-DEV (internal rev. 5)
    Writing library : x264 core 67 r1165M 6841c5e
    Encoding settings : cabac=0/ref=1/deblock=1: 0: 0/analyse=0x1: 0/me=hex/subme=6/psy_rd=1.0: 0.0/mixed_ref=0/me_range=16/chroma_me=1/trellis=0/8x8dct=0/cqm=0/deadzone=21, 11/chroma_qp_offset=-2/threads=3/nr=0/decimate=1/mbaff=0/bframes=0/keyint=250/keyint_min=25/scenecut=40/rc=2pass/bitrate=500/ratetol=1.0/qcomp=0.60/qpmin=10/qpmax=51/qpstep=4/cplxblur=20.0/qblur=0.5/vbv_maxrate=1500/vbv_bufsize=2000/ip_ratio=1.40/aq=1: 1.00
    Encoded date : UTC 2016-09-28 11: 34: 30
    Tagged date : UTC 2016-09-28 11: 35: 42
    Audio
    ID : 2
    Format : AAC
    Format/Info : Advanced Audio Codec
    Format profile : LC
    Codec ID : 40
    Duration : 1h 59mn
    Bit rate mode : Variable
    Bit rate : 126 Kbps
    Maximum bit rate : 210 Kbps
    Channel(s) : 2 channels
    Channel positions : Front: L R
    Sampling rate : 44.1 KHz
    Frame rate : 43.066 fps (1024 spf)
    Compression mode : Lossy
    Stream size : 108 MiB (20%)
    Title : Imported with GPAC 0.4.6-DEV (internal rev. 5)
    Encoded date : UTC 2016-09-28 11: 35: 21
    Tagged date : UTC 2016-09-28 11: 35: 42
    Скриншоты

    Релиз подготовил:
    Залил: surikmas

    Онлайн видео День независимости: Возрождение


    Размер скачиваемого торрента: 540.21 MB (566450125 Bytes)

    День независимости: Возрождение/Independence Day: Resurgence (2016) WEB-DLRip от ImperiaFilm | КПК | iTunes
    загрузка...
    Рейтинг →
     (голосов: 1, оценка 4/5, голосовать можно 1 раз )

    Другие торренты по теме:



      Комментарии (0):

      Информация

      Информация

        Посетители, находящиеся в группе Гости, не могут оставлять комментарии в данной новости.

        ↓ Меню



        ↓ Опрос

        А Вы добавили сайт в закладки?
        Да
        Не


        Top 10 за месяц (Фильмы)