.
Авторизация | Регистрация
» » До встречи с тобой / Me Before You (2016) BDRip 720p от ExKinoRay | Лицензия скачать торрент бесплатно




    До встречи с тобой / Me Before You (2016) BDRip 720p от ExKinoRay | Лицензия скачать торрент бесплатно

    Опубликовал: Админ | Дата: 1-10-2016, 05:02 | Просмотров: 83



    Детально о кино
    Русское название: До встречи с тобой
    Русское название в мировом прокате: Me Before You
    Создали в: 2016
    Категория жанра: Драма, мелодрама, экранизация
    Главный режиссер: Теа Шэррок

    Актеры
    Сэм Клафлин, Эмилия Кларк, Ванесса Кирби, Эйлин Данвуди, Пабло Рэйбоулд, Гэбриэлль Дауни, Саманта Спиро, Брендан Койл, Дженна Коулман
    О фильме:
    По сюжету одноимённого романа Джоджо Мойес. Лу Кларк знает, сколько шагов от автобусной остановки до ее дома. Она знает, что ей очень нравится работа в кафе и что, скорее всего, она не любит своего бойфренда Патрика. Но Лу не знает, что вот-вот потеряет свою работу и что в ближайшем будущем ей понадобятся все силы, чтобы преодолеть свалившиеся на нее проблемы.

    Снималось в: Великобритания
    Киностудия: Metro-Goldwyn-Mayer (MGM), New Line Cinema
    Время просмотра: 01: 50: 14
    Перевод текста: Дублированный | Лицензия Blu-Ray CEE
    Файл
    Кодек для видео: MPEG-4
    Качество фильма: BDRip 720p
    Информация о видео: 1280x536, 7500 Kbit/s, 23.976 fps
    Информация о звуке:
    Информация о звуке #01: 48 kHz, AC3, 5.1, 640 Kbps | Дублированный |
    Информация о звуке #02: 48 kHz, AC3, 5.1, 384 Kbps | Дублированный |
    Информация о звуке #03: 48 kHz, DTS, 5.1, 1510 kbps | Оригинал |
    Субтитры: Русские, украинские, английские

    MI
    General
    Unique ID : 253770002669929381268744773333441588326 (0xBEEA532062DFA774A04B872E33C82C66)
    Complete name : H: VideoMe.Before.You.2016.D.BDRip.720p.ExKinoRay.mkv
    Format : Matroska
    Format version : Version 4/Version 2
    File size : 7.72 GiB
    Duration : 1 h 50 min
    Overall bit rate : 10.0 Mb/s
    Movie name : ***селезень***
    Encoded date : UTC 2016-09-30 22: 04: 25
    Writing application : mkvmerge v8.3.0 (;Over the Horizon;) 64bit
    Writing library : libebml v1.3.1 + libmatroska v1.4.2
    Video
    ID : 1
    Format : AVC
    Format/Info : Advanced Video Codec
    Format profile : High@L4.1
    Format settings, CABAC : Yes
    Format settings, ReFrames : 12 frames
    Codec ID : V_MPEG4/ISO/AVC
    Duration : 1 h 50 min
    Bit rate : 7 500 kb/s
    Width : 1 280 pixels
    Height : 536 pixels
    Display aspect ratio : 2.40: 1
    Frame rate mode : Constant
    Frame rate : 23.976 (24000/1001) FPS
    Color space : YUV
    Chroma subsampling : 4: 2: 0
    Bit depth : 8 bits
    Scan type : Progressive
    Bits/(Pixel*Frame) : 0.456
    Stream size : 5.76 GiB (75%)
    Title : ***селезень***
    Writing library : x264 core 142 r2431+42 c69a006 tMod 8-bit@all X86
    Encoding settings : cabac=1/ref=12/deblock=1: 0: 0/analyse=0x3: 0x113/me=umh/subme=10/psy=1/fade_compensate=0.00/psy_rd=1.05: 0.10/mixed_ref=1/me_range=32/chroma_me=1/trellis=2/8x8dct=1/cqm=0/deadzone=21, 11/fast_pskip=0/chroma_qp_offset=-2/threads=12/lookahead_threads=1/sliced_threads=0/nr=0/decimate=1/interlaced=0/bluray_compat=0/constrained_intra=0/fgo=0/bframes=6/b_pyramid=2/b_adapt=2/b_bias=0/direct=3/weightb=1/open_gop=0/weightp=2/keyint=250/keyint_min=23/scenecut=40/intra_refresh=0/rc=2pass/mbtree=0/bitrate=7500/ratetol=1.0/qcomp=0.70/qpmin=0: 0: 0/qpmax=69: 69: 69/qpstep=4/cplxblur=20.0/qblur=0.5/ip_ratio=1.40/pb_ratio=1.30/aq=2: 1.00/aq-sensitivity=10.00/aq-factor=1.00: 1.00: 1.00/aq2=0/aq3=0
    Language : English
    Default : Yes
    Forced : No
    Audio #1
    ID : 2
    Format : AC-3
    Format/Info : Audio Coding 3
    Mode extension : CM (complete main)
    Format settings, Endianness : Big
    Codec ID : A_AC3
    Duration : 1 h 50 min
    Bit rate mode : Constant
    Bit rate : 640 kb/s
    Channel(s) : 6 channels
    Channel positions : Front: L C R, Side: L R, LFE
    Sampling rate : 48.0 kHz
    Frame rate : 31.250 FPS (1536 spf)
    Compression mode : Lossy
    Stream size : 505 MiB (6%)
    Title : Dub Blu-Ray CEE
    Language : Russian
    Default : Yes
    Forced : No
    Audio #2
    ID : 3
    Format : AC-3
    Format/Info : Audio Coding 3
    Mode extension : CM (complete main)
    Format settings, Endianness : Big
    Codec ID : A_AC3
    Duration : 1 h 50 min
    Bit rate mode : Constant
    Bit rate : 384 kb/s
    Channel(s) : 6 channels
    Channel positions : Front: L C R, Side: L R, LFE
    Sampling rate : 48.0 kHz
    Frame rate : 31.250 FPS (1536 spf)
    Compression mode : Lossy
    Stream size : 303 MiB (4%)
    Title : Dub iTunes
    Language : Ukrainian
    Default : No
    Forced : No
    Audio #3
    ID : 4
    Format : DTS
    Format/Info : Digital Theater Systems
    Mode : 16
    Format settings, Endianness : Big
    Codec ID : A_DTS
    Duration : 1 h 50 min
    Bit rate mode : Constant
    Bit rate : 1 509 kb/s
    Channel(s) : 6 channels
    Channel positions : Front: L C R, Side: L R, LFE
    Sampling rate : 48.0 kHz
    Frame rate : 93.750 FPS (512 spf)
    Bit depth : 24 bits
    Compression mode : Lossy
    Delay relative to video : 11 ms
    Stream size : 1.16 GiB (15%)
    Title : Original
    Language : English
    Default : No
    Forced : No
    Text #1
    ID : 5
    Format : UTF-8
    Codec ID : S_TEXT/UTF8
    Codec ID/Info : UTF-8 Plain Text
    Duration : 1 h 45 min
    Bit rate : 95 b/s
    Count of elements : 1638
    Stream size : 73.8 KiB (0%)
    Title : iTunes
    Language : Russian
    Default : No
    Forced : No
    Text #2
    ID : 6
    Format : UTF-8
    Codec ID : S_TEXT/UTF8
    Codec ID/Info : UTF-8 Plain Text
    Duration : 1 h 20 min
    Bit rate : 2 b/s
    Count of elements : 29
    Stream size : 1.26 KiB (0%)
    Title : iTunes
    Language : Ukrainian
    Default : No
    Forced : No
    Text #3
    ID : 7
    Format : UTF-8
    Codec ID : S_TEXT/UTF8
    Codec ID/Info : UTF-8 Plain Text
    Duration : 1 h 45 min
    Bit rate : 63 b/s
    Count of elements : 1640
    Stream size : 49.0 KiB (0%)
    Title : Full
    Language : English
    Default : No
    Forced : No
    Text #4
    ID : 8
    Format : UTF-8
    Codec ID : S_TEXT/UTF8
    Codec ID/Info : UTF-8 Plain Text
    Duration : 1 h 45 min
    Bit rate : 68 b/s
    Count of elements : 1746
    Stream size : 52.5 KiB (0%)
    Title : SDH
    Language : English
    Default : No
    Forced : No
    Menu
    00: 00: 00.000 : en: 1
    00: 12: 40.969 : en: 2
    00: 20: 01.575 : en: 3
    00: 29: 06.244 : en: 4
    00: 39: 38.418 : en: 5
    00: 49: 13.868 : en: 6
    01: 01: 15.547 : en: 7
    01: 10: 16.796 : en: 8
    01: 19: 16.418 : en: 9
    01: 32: 06.479 : en: 10
    01: 37: 58.331 : en: 11
    01: 45: 55.349 : en: 12


    Релиз подготовил: Автор релиза:

    Онлайн видео До встречи с тобой


    Размер скачиваемого торрента: 7.72 GB (8286507494 Bytes)

    До встречи с тобой/Me Before You (2016) BDRip 720p от ExKinoRay | Лицензия
    загрузка...
    Рейтинг →
     (голосов: 1, оценка 3/5, голосовать можно 1 раз )

    Другие торренты по теме:

  • До встречи с тобой скачать через торрент бесплатно
  • До встречи с тобой (2016) скачать торрент бесплатно
  • До встречи с тобой / Me Before You (2016) WEBRip 1080p | L скачать торрент бесплатно
  • До встречи с тобой / Me Before You (2016) BDRip 720p | Line скачать торрент бесплатно
  • До встречи с тобой / Me Before You (2016) BDRemux 1080p от ExKinoRay | D скачать торрент бесплатно
  • До встречи с тобой / Me Before You (2016) HDRip от Scarabey | D скачать торрент бесплатно
  • До встречи с тобой / Me Before You (2016) BDRip-AVC от NNNB | D скачать торрент бесплатно
  • До встречи с тобой / Me Before You (2016) BDRip от ExKinoRay | D скачать торрент бесплатно


    • Комментарии (0):

      Информация

      Информация

        Посетители, находящиеся в группе Гости, не могут оставлять комментарии в данной новости.

        ↓ Меню



        ↓ Опрос

        А Вы добавили сайт в закладки?
        Да
        Не


        Top 10 за неделю (Фильмы)