.
Авторизация | Регистрация
» » До встречи с тобой / Me Before You (2016) BDRip 1080p | Лицензия скачать торрент бесплатно




    До встречи с тобой / Me Before You (2016) BDRip 1080p | Лицензия скачать торрент бесплатно

    Опубликовал: Админ | Дата: 1-10-2016, 05:02 | Просмотров: 49



    Детально о кино
    Русское название: До встречи с тобой
    Русское название в мировом прокате: Me Before You
    Создали в: 2016
    Категория жанра: драма
    Главный режиссер: Теа Шэррок

    Актеры
    Сэм Клафлин, Эмилия Кларк, Ванесса Кирби, Эйлин Данвуди, Пабло Рэйбоулд, Гэбриэлль Дауни, Генри Чарльз, Саманта Спиро, Брендан Койл, Дженна Коулман

    Сюжет фильма

    Лу Кларк знает, сколько шагов от автобусной остановки до ее дома. Она знает, что ей очень нравится работа в кафе и что, скорее всего, она не любит своего бойфренда Патрика. Но Лу не знает, что вот-вот потеряет свою работу и что в ближайшем будущем ей понадобятся все силы, чтобы преодолеть свалившиеся на нее проблемы.
    Уилл Трейнор знает, что сбивший его мотоциклист отнял у него желание жить. И он точно знает, что надо сделать, чтобы положить конец всему этому. Но он не знает, что Лу скоро ворвется в его мир буйством красок. И они оба не знают, что навсегда изменят жизнь друг друга.

    Снималось в: США, Великобритания
    Киностудия: Metro-Goldwyn-Mayer (MGM), New Line Cinema
    Время просмотра: 01: 50: 14
    Перевод текста: Профессиональный (дублированный) Blu-ray CEE
    Релиз:
    Файл
    Тип видео: Matroska
    Источник: Me.Before.You.2016.COMPLETE.BLURAY-LAZERS
    Информация о видео: 1920x804 at 23.976 fps, x264@L4.1, ~15500 kbps avg
    Aудио#1: Russian: 48 kHz, AC3, 3/2 (L, C, R, l, r) + LFE ch, ~640 kbps avg|Дубляж, Blu-ray CEE|
    Aудио#2: Ukrainian: 48 kHz, AC3, 3/2 (L, C, R, l, r) + LFE ch, ~384 kbps avg|Дубляж, iTunes Russia|
    Aудио#3: English: 48 kHz, DTS, 3/2 (L, C, R, l, r) + LFE ch, ~1509 kbps avg
    Субтитры: Russian (iTunes), Ukrainian (Forced, iTunes), English, English (SDH)
    ***Сохранены оригинальные главы как на Blu-ray.
    ***Видеоряд - DON!
    ***Banding fixed.
    Знаете ли вы, что...
    За первую неделю после выхода трейлера к фильму роман До встречи с тобой взлетел в списке бестселлеров по версии газеты USA Today со 141-го места на 3-е.
    Эмилия Кларк, которая играет Луизу Кларк, и Чарльз Дэнс, исполнитель роли Стивена Трейнора, снимались в сериале Игра престолов (2011), но совместных сцен там у них не было. В этом же сериале снимался и Ричард Мэдден, приятель Дженны Коулман, которая играет Катрину Кларк.
    Режиссёрский дебют в кино театрального режиссёра Теа Шэррок.
    Эмилия Кларк убедила Мэттью Льюиса побрить перед съёмками ноги.
    В фильме отсутствует множество описанных в книге сцен и как минимум один персонаж.
    В романе Джоджо Мойес (2012), по которому Теа Шэррок сняла фильм, Лу Кларк делает себе татуировку шмеля. Исполнительница этой роли Эмилия Кларк имеет такую татуировку на пальце (это была её первая наколка).
    В историческом телесериале Белая королева (2013) Джанет МакТир сыграла Жакетту Люксембургскую, мать Елизаветы, которой суждено было взойти на престол. Чарльз Дэнс в сериале Игра престолов (2011) сыграл отца Серсеи Ланнистер. Считается, что персонаж Серсеи частично списан с Елизаветы Вудвилл. В фильме До встречи с тобой Мактир и Дэнс играют супругов.
    Некоторые утверждают, что Уилл не мог перерезать себе вены, потому что руки его не слушаются. По книге, Уилл нашёл торчащий из стены гвоздь и просто проехал рядом с ним взад-вперёд на кресле-каталке.
    Фильм вызвал множество критических замечаний от инвалидов, полагавших, будто он пропагандирует для таких людей самоубийство.
    MI
    Общее
    Уникальный идентификатор : 238899915741827140055737173770671823032 (0xB3BA733CA10F45CBAE9F65A59B9D18B8)
    Полное имя : Me.Before.You.2016.1080p.BluRay.Rus.Ukr.Eng.HDCLUB.mkv
    Формат : Matroska
    Версия формата : Version 2
    Размер файла : 13, 9 Гбайт
    Продолжительность : 1 ч. 50 м.
    Общий поток : 18, 0 Мбит/сек
    Название фильма : Me Before You (2016) - Release for HDCLUB
    Дата кодирования : UTC 2016-09-30 14: 44: 45
    Программа кодирования : mkvmerge v3.4.0 (;Rapunzel;) built on May 15 2010 09: 38: 20
    Библиотека кодирования : libebml v0.8.0 + libmatroska v0.9.0
    Видео
    Идентификатор : 1
    Формат : AVC
    Формат/Информация : Advanced Video Codec
    Профиль формата : High@L4.1
    Параметр CABAC формата : Да
    Параметр ReFrames формата : 5 кадров
    Идентификатор кодека : V_MPEG4/ISO/AVC
    Продолжительность : 1 ч. 50 м.
    Битрейт : 15, 5 Мбит/сек
    Ширина : 1920 пикселей
    Высота : 804 пикселя
    Соотношение сторон : 2, 40: 1
    Режим частоты кадров : Постоянный
    Частота кадров : 23, 976 кадра/сек
    Цветовое пространство : YUV
    Субдискретизация насыщенности : 4: 2: 0
    Битовая глубина : 8 бит
    Тип развёртки : Прогрессивная
    Бит/(Пиксели*Кадры) : 0.419
    Размер потока : 11, 7 Гбайт (84%)
    Заголовок : Me Before You (2016) - Release for HDCLUB
    Библиотека кодирования : x264 core 148 r2705 3f5ed56
    Настройки программы : cabac=1/ref=5/deblock=1: -3: -3/analyse=0x3: 0x133/me=umh/subme=11/psy=1/psy_rd=1.05: 0.00/mixed_ref=1/me_range=32/chroma_me=1/trellis=2/8x8dct=1/cqm=0/deadzone=21, 11/fast_pskip=0/chroma_qp_offset=-2/threads=18/lookahead_threads=3/sliced_threads=0/slices=4/nr=0/decimate=0/interlaced=0/bluray_compat=0/constrained_intra=0/bframes=8/b_pyramid=2/b_adapt=2/b_bias=0/direct=3/weightb=1/open_gop=0/weightp=2/keyint=250/keyint_min=23/scenecut=40/intra_refresh=0/rc_lookahead=40/rc=2pass/mbtree=0/bitrate=15500/ratetol=1.0/qcomp=0.65/qpmin=0/qpmax=51/qpstep=4/cplxblur=20.0/qblur=0.5/vbv_maxrate=62500/vbv_bufsize=78125/nal_hrd=none/filler=0/ip_ratio=1.40/pb_ratio=1.30/aq=3: 0.75/zones=82, 90, b=1.5/644, 740, b=1.5/950, 1678, b=1.5/73360, 73449, b=1.5/81400, 83050, b=1.5/107769, 107952, b=2/123953, 124024, b=2/125591, 132540, b=2/152333, 155800, b=1.5/155801, 158210, b=0.2
    Язык : English
    Default : Да
    Forced : Нет
    Аудио #1
    Идентификатор : 2
    Формат : AC-3
    Формат/Информация : Audio Coding 3
    Расширение режима : CM (complete main)
    Параметр Endianness формата : Big
    Идентификатор кодека : A_AC3
    Продолжительность : 1 ч. 50 м.
    Вид битрейта : Постоянный
    Битрейт : 640 Кбит/сек
    Каналы : 6 каналов
    Расположение каналов : Front: L C R, Side: L R, LFE
    Частота : 48, 0 КГц
    Битовая глубина : 16 бит
    Метод сжатия : С потерями
    Размер потока : 505 Мбайт (4%)
    Заголовок : AC3 5.1 @ 640 kbps - DUB, Blu-ray CEE
    Язык : Russian
    Default : Да
    Forced : Нет
    Аудио #2
    Идентификатор : 3
    Формат : AC-3
    Формат/Информация : Audio Coding 3
    Расширение режима : CM (complete main)
    Параметр Endianness формата : Big
    Идентификатор кодека : A_AC3
    Продолжительность : 1 ч. 50 м.
    Вид битрейта : Постоянный
    Битрейт : 384 Кбит/сек
    Каналы : 6 каналов
    Расположение каналов : Front: L C R, Side: L R, LFE
    Частота : 48, 0 КГц
    Битовая глубина : 16 бит
    Метод сжатия : С потерями
    Размер потока : 303 Мбайт (2%)
    Заголовок : AC3 5.1 @ 384 kbps - DUB, iTunes
    Язык : Ukrainian
    Default : Нет
    Forced : Нет
    Аудио #3
    Идентификатор : 4
    Формат : DTS
    Формат/Информация : Digital Theater Systems
    Режим : 16
    Параметр Endianness формата : Big
    Идентификатор кодека : A_DTS
    Продолжительность : 1 ч. 50 м.
    Вид битрейта : Постоянный
    Битрейт : 1509 Кбит/сек
    Каналы : 6 каналов
    Расположение каналов : Front: L C R, Side: L R, LFE
    Частота : 48, 0 КГц
    Битовая глубина : 24 бит
    Метод сжатия : С потерями
    Размер потока : 1, 16 Гбайт (8%)
    Заголовок : DTS 5.1 @ 1536 kbps
    Язык : English
    Default : Нет
    Forced : Нет
    Текст #1
    Идентификатор : 5
    Формат : UTF-8
    Идентификатор кодека : S_TEXT/UTF8
    Идентификатор кодека/Информация : UTF-8 Plain Text
    Заголовок : iTunes
    Язык : Russian
    Default : Нет
    Forced : Нет
    Текст #2
    Идентификатор : 6
    Формат : UTF-8
    Идентификатор кодека : S_TEXT/UTF8
    Идентификатор кодека/Информация : UTF-8 Plain Text
    Заголовок : iTunes
    Язык : Ukrainian
    Default : Нет
    Forced : Нет
    Текст #3
    Идентификатор : 7
    Формат : UTF-8
    Идентификатор кодека : S_TEXT/UTF8
    Идентификатор кодека/Информация : UTF-8 Plain Text
    Язык : English
    Default : Нет
    Forced : Нет
    Текст #4
    Идентификатор : 8
    Формат : UTF-8
    Идентификатор кодека : S_TEXT/UTF8
    Идентификатор кодека/Информация : UTF-8 Plain Text
    Заголовок : SDH
    Язык : English
    Default : Нет
    Forced : Нет
    Меню
    00: 00: 00.000 : en: 1
    00: 12: 40.969 : en: 2
    00: 20: 01.575 : en: 3
    00: 29: 06.244 : en: 4
    00: 39: 38.418 : en: 5
    00: 49: 13.868 : en: 6
    01: 01: 15.547 : en: 7
    01: 10: 16.796 : en: 8
    01: 19: 16.418 : en: 9
    01: 32: 06.479 : en: 10
    01: 37: 58.331 : en: 11
    01: 45: 55.349 : en: 12
    Скриншоты


    Онлайн видео До встречи с тобой


    Размер скачиваемого торрента: 13.89 GB (14911416109 Bytes)

    До встречи с тобой/Me Before You (2016) BDRip 1080p | Лицензия
    загрузка...
    Рейтинг →
     (голосов: 1, оценка 5/5, голосовать можно 1 раз )

    Другие торренты по теме:

  • До встречи с тобой скачать через торрент бесплатно
  • До встречи с тобой (2016) скачать торрент бесплатно
  • До встречи с тобой / Me Before You (2016) WEBRip 1080p | L скачать торрент бесплатно
  • До встречи с тобой / Me Before You (2016) BDRip 720p | Line скачать торрент бесплатно
  • До встречи с тобой / Me Before You (2016) BDRemux 1080p от ExKinoRay | D скачать торрент бесплатно
  • До встречи с тобой / Me Before You (2016) HDRip от Scarabey | D скачать торрент бесплатно
  • До встречи с тобой / Me Before You (2016) BDRip-AVC от NNNB | D скачать торрент бесплатно
  • До встречи с тобой / Me Before You (2016) BDRip от ExKinoRay | D скачать торрент бесплатно


    • Комментарии (0):

      Информация

      Информация

        Посетители, находящиеся в группе Гости, не могут оставлять комментарии в данной новости.

        ↓ Меню



        ↓ Опрос

        А Вы добавили сайт в закладки?
        Да
        Не


        Top 10 за неделю (Фильмы)