.
Авторизация | Регистрация
Хочешь лучшие торренты? Добавь свой email!
Добавить
» » 600 миль / 600 Millas (2015) BDRemux 1080p от ExKinoRay | А торрент скачать бесплатно




    600 миль / 600 Millas (2015) BDRemux 1080p от ExKinoRay | А торрент скачать бесплатно

    Опубликовал: Админ | Дата: 1-10-2016, 05:02 | Просмотров: 444



    Детально о кино
    Русское название: 600 миль
    Русское название в мировом прокате: 600 Millas/600 Miles
    Создали в: 2015
    Категория жанра: Триллер, драма
    Главный режиссер: Гэбриел Рипштейн

    Актеры
    Тим Рот, Кристиан Феррер, Моника дель Кармен, Крэйг Хенсли, Харрис Кендалл, Грег Лутс, Дирдри Мойлан, Лиза Пииккиля, Пэйтон Николь Пайпер, Фаусто Олмос Рентерия
    О фильме:
    Однажды, при попытке арестовать подозреваемого, полицейский (Тим Рот) волею случая становится сам пленником у юного преступника (Кристиан Феррер). Тот, будучи новичком в своем криминальном деле, везет связанного полицейского через границу в Мексику, не особо задумываясь над тем, что делать дальше. Это один из основных моментов в фильме. Кому -то он покажется затянутым, а кто-то правильно поймет, что жизнь нам дается не только затем, чтобы прожить ближайшие часы, но и чтобы держать отчет в дальнейшем, возможно, и перед Вечностью. В поездке, паренек проникается диалогами с полицейским, и постепенно, симпатии вчерашнего мальчишки, обречённого изначально жить как попало и где попало, перестраиваются на сочувствие и уважение к солидному стражу порядка. В результате хитросплетений сюжета, паренёк должен сделать нелёгкий выбор - спасти своего пленника или остаться в криминальном деле...

    Снималось в: Мексика, США
    Киностудия: Lucia Films
    Время просмотра: 01: 20: 28
    Перевод текста: Авторский одноголосый (закадровый) | Антон Карповский
    Файл
    Кодек для видео: MPEG-4
    Качество фильма: BDRemux 1080p
    Информация о видео: 1920x1080, 28.0 Mbit/s, 23.976 fps
    Информация о звуке:
    Информация о звуке #01: 48 kHz, DTS, 5.1, 1510 Kbps | Авторский одноголосый (закадровый) | Антон Карповский |
    Информация о звуке #02: 48 kHz, AC3, 5.1, 640 Kbps | Авторский одноголосый (закадровый) | Антон Карповский |
    Информация о звуке #03: 48 kHz, DTS-HD MA, 5.1, 3622 kbps | Оригинал |
    Субтитры: Французские
    MI
    General
    Unique ID : 190851531138614548751001247134649518585 (0x8F94AAF9DE826AF393C432A1BCA189F9)
    Complete name : H: Video600.Miles.BDREMUX.1080p.ExKinoRay.mkv
    Format : Matroska
    Format version : Version 4/Version 2
    File size : 18.9 GiB
    Duration : 1 h 20 min
    Overall bit rate mode : Variable
    Overall bit rate : 33.7 Mb/s
    Movie name : build by ***селезень***
    Encoded date : UTC 2016-09-30 13: 50: 55
    Writing application : mkvmerge v8.3.0 (;Over the Horizon;) 64bit
    Writing library : libebml v1.3.1 + libmatroska v1.4.2
    Video
    ID : 1
    Format : AVC
    Format/Info : Advanced Video Codec
    Format profile : High@L4.1
    Format settings, CABAC : Yes
    Format settings, ReFrames : 3 frames
    Codec ID : V_MPEG4/ISO/AVC
    Duration : 1 h 20 min
    Bit rate mode : Variable
    Bit rate : 28.0 Mb/s
    Maximum bit rate : 36.0 Mb/s
    Width : 1 920 pixels
    Height : 1 080 pixels
    Display aspect ratio : 16: 9
    Frame rate mode : Constant
    Frame rate : 25.000 FPS
    Color space : YUV
    Chroma subsampling : 4: 2: 0
    Bit depth : 8 bits
    Scan type : MBAFF
    Scan type, store method : Interleaved fields
    Scan order : Top Field First
    Bits/(Pixel*Frame) : 0.540
    Stream size : 15.7 GiB (83%)
    Title : build by ***селезень***
    Writing library : x264 core 146 r2538 121396c
    Encoding settings : cabac=1/ref=4/deblock=1: -1: -1/analyse=0x3: 0x133/me=umh/subme=10/psy=1/psy_rd=1.00: 0.15/mixed_ref=1/me_range=24/chroma_me=1/trellis=2/8x8dct=1/cqm=0/deadzone=21, 11/fast_pskip=1/chroma_qp_offset=-3/threads=48/lookahead_threads=4/sliced_threads=0/slices=4/nr=0/decimate=1/interlaced=tff/bluray_compat=1/constrained_intra=0/bframes=3/b_pyramid=1/b_adapt=2/b_bias=0/direct=3/weightb=1/open_gop=1/weightp=0/keyint=25/keyint_min=1/scenecut=40/intra_refresh=0/rc_lookahead=25/rc=2pass/mbtree=1/bitrate=28000/ratetol=1.0/qcomp=0.60/qpmin=0/qpmax=69/qpstep=4/cplxblur=20.0/qblur=0.5/vbv_maxrate=36000/vbv_bufsize=30000/nal_hrd=vbr/filler=0/ip_ratio=1.40/aq=1: 1.00
    Language : French
    Default : Yes
    Forced : No
    Color range : Limited
    Color primaries : BT.709
    Transfer characteristics : BT.709
    Matrix coefficients : BT.709
    Audio #1
    ID : 2
    Format : DTS
    Format/Info : Digital Theater Systems
    Mode : 16
    Format settings, Endianness : Big
    Codec ID : A_DTS
    Duration : 1 h 20 min
    Bit rate mode : Constant
    Bit rate : 1 509 kb/s
    Channel(s) : 6 channels
    Channel positions : Front: L C R, Side: L R, LFE
    Sampling rate : 48.0 kHz
    Frame rate : 93.750 FPS (512 spf)
    Bit depth : 24 bits
    Compression mode : Lossy
    Stream size : 868 MiB (4%)
    Title : AVO-DTS Карповский
    Language : Russian
    Default : Yes
    Forced : No
    Audio #2
    ID : 3
    Format : AC-3
    Format/Info : Audio Coding 3
    Mode extension : CM (complete main)
    Format settings, Endianness : Big
    Codec ID : A_AC3
    Duration : 1 h 20 min
    Bit rate mode : Constant
    Bit rate : 640 kb/s
    Channel(s) : 6 channels
    Channel positions : Front: L C R, Side: L R, LFE
    Sampling rate : 48.0 kHz
    Frame rate : 31.250 FPS (1536 spf)
    Compression mode : Lossy
    Stream size : 368 MiB (2%)
    Title : AVO-AC3 Карповский
    Language : Russian
    Default : No
    Forced : No
    Audio #3
    ID : 4
    Format : DTS
    Format/Info : Digital Theater Systems
    Format profile : MA/Core
    Mode : 16
    Format settings, Endianness : Big
    Codec ID : A_DTS
    Duration : 1 h 20 min
    Bit rate mode : Variable/Constant
    Bit rate : 3 622 kb/s/1 509 kb/s
    Channel(s) : 6 channels
    Channel positions : Front: L C R, Side: L R, LFE
    Sampling rate : 48.0 kHz
    Frame rate : 93.750 FPS (512 spf)
    Bit depth : 24 bits
    Compression mode : Lossless/Lossy
    Stream size : 2.04 GiB (11%)
    Title : Full
    Language : French
    Default : No
    Forced : No
    Text
    ID : 5
    Format : UTF-8
    Codec ID : S_TEXT/UTF8
    Codec ID/Info : UTF-8 Plain Text
    Duration : 1 h 18 min
    Bit rate : 29 b/s
    Count of elements : 770
    Stream size : 16.7 KiB (0%)
    Title : Full
    Language : French
    Default : No
    Forced : No
    Menu
    00: 00: 00.000 : en: 00: 00: 00.000
    00: 09: 05.200 : en: 00: 09: 05.200
    00: 15: 22.720 : en: 00: 15: 22.720
    00: 21: 31.320 : en: 00: 21: 31.320
    00: 26: 01.840 : en: 00: 26: 01.840
    00: 29: 24.720 : en: 00: 29: 24.720
    00: 36: 55.160 : en: 00: 36: 55.160
    00: 46: 14.520 : en: 00: 46: 14.520
    00: 55: 06.720 : en: 00: 55: 06.720
    01: 02: 28.280 : en: 01: 02: 28.280
    01: 08: 00.440 : en: 01: 08: 00.440
    01: 14: 47.520 : en: 01: 14: 47.520
    Внимание!
    Присутствует ненормативная лексика.


    Релиз подготовил: Автор релиза:

    Онлайн видео 600 миль


    Размер скачиваемого торрента: 18.91 GB (20309708660 Bytes)

    600 миль/600 Millas (2015) BDRemux 1080p от ExKinoRay | А
    загрузка...
    Рейтинг →
     (голосов: 1, оценка 5/5, голосовать можно 1 раз )

    Другие торренты по теме:

  • 600 миль / 600 Millas (2015) BDRip | А


    • Комментарии (0):

      Информация

      Информация

        Посетители, находящиеся в группе Гости, не могут оставлять комментарии в данной новости.

        ↓ Меню



        ↓ Опрос

        А Вы добавили сайт в закладки?
        Да
        Не


        Top 10 за месяц (Фильмы)