.
Авторизация | Регистрация




Руфус / Rufus (2016) HDTVRip 1080p | D скачать торрент бесплатно

Опубликовал: Админ | Дата: 2-10-2016, 05:02 | Просмотров: 46



Детально о кино
Русское название: Руфус
Русское название в мировом прокате: Rufus
Создали в: 2016
Категория жанра: комедия, семейный
Главный режиссер: Сэвидж Стив Холланд

Актеры
Джейс Норман, Дэвис Кливлэнд, Хейли Тджу, Ноэль Йохансен, Чад Райли, Лиза Дурупт, Пол Белсито, Дариен Провост

Сюжет фильма

Мэнни переехал в новую школу, он хочет, чтобы у него было много друзей. Его собака Руфус находит таинственный амулет, который Мэнни надевает Руфусу на шею. Вдруг Руфус превращается в мальчика! Мэнни не знает, что делать, поэтому он приводит Руфуса в школу. Из-за своих собачьих привычек Руфус становится самым популярным учеником…

Создали в: США/Pacific Bay Entertainment, Pacific Bay Entertainment Canada
Время просмотра: 00: 41: 58
Перевод текста: профессиональный (полное дублирование)Nickelodeon
Файл
Качество фильма: HDTVRip 1080p
Тип видео: MKV
Информация о видео: MPEG-4 AVC, 1920x1080 (16: 9), 25.000 fps, 5000 kbps, 0.096 bit/pixel
Информация о звуке: русский, AC3 2.0, 48 kHz, 192 kbps
MediaInfo
Формат : Matroska
Версия формата : Version 4/Version 2
Размер файла : 1, 52 Гбайт
Продолжительность : 41 м.
Режим общего битрейта : Постоянный
Общий поток : 5190 Кбит/сек
Дата кодирования : UTC 2016-07-04 12: 26: 54
Программа кодирования : mkvmerge v7.9.0 (;Birds;) 64bit
Библиотека кодирования : libebml v1.3.1 + libmatroska v1.4.2
Видео
Идентификатор : 1
Формат : AVC
Формат/Информация : Advanced Video Codec
Профиль формата : High@L4.1
Параметр CABAC формата : Да
Параметр ReFrames формата : 3 кадра
Параметр GOP формата : M=3, N=25
Идентификатор кодека : V_MPEG4/ISO/AVC
Продолжительность : 41 м.
Вид битрейта : Постоянный
Битрейт : 5000 Кбит/сек
Ширина : 1920 пикселей
Высота : 1080 пикселей
Соотношение сторон : 16: 9
Режим частоты кадров : Постоянный
Частота кадров : 25, 000 кадров/сек
Стандарт вещания : PAL
Цветовое пространство : YUV
Субдискретизация насыщенности : 4: 2: 0
Битовая глубина : 8 бит
Тип развёртки : Прогрессивная
Бит/(Пиксели*Кадры) : 0.096
Размер потока : 1, 43 Гбайт (94%)
Язык : English
Default : Да
Forced : Нет
Цветовой диапазон : Limited
Основные цвета : BT.709
Характеристики трансфера : BT.709
Коэффициенты матрицы : BT.709
Аудио
Идентификатор : 2
Формат : AC-3
Формат/Информация : Audio Coding 3
Расширение режима : CM (complete main)
Параметр Endianness формата : Big
Идентификатор кодека : A_AC3
Продолжительность : 41 м.
Вид битрейта : Постоянный
Битрейт : 192 Кбит/сек
Каналы : 2 канала
Расположение каналов : Front: L R
Частота : 48, 0 КГц
Метод сжатия : С потерями
Размер потока : 57, 6 Мбайт (4%)
Язык : Russian
Default : Да
Forced : Нет
Скриншоты

Залил: makkaronni
Размер скачиваемого торрента: 1.52 GB (1633634904 Bytes)

Руфус/Rufus (2016) HDTVRip 1080p | D
загрузка...
Рейтинг →
 (голосов: 1, оценка 3/5, голосовать можно 1 раз )

Другие торренты по теме:

  • Руфус / Rufus (2016) скачать торрент бесплатно


    • Комментарии (0):

      Информация

      Информация

        Посетители, находящиеся в группе Гости, не могут оставлять комментарии в данной новости.

        ↓ Меню



        ↓ Опрос

        А Вы добавили сайт в закладки?
        Да
        Не


        Top 10 за неделю (Фильмы)

        Ёлки 5 (2016) WEB-DLRip скачать торрент бесплатно

        (просмотров: 2481)
        Разрушение / Demolition (2015) BDRemux 1080p от ExKinoRay | L скачать торрент бесплатно

        (просмотров: 1111)
        Мой парень – киллер / Mr. Right (2015) WEB-DL 1080p | L скачать торрент бесплатно

        (просмотров: 1051)
        Экипаж (2016) BDRip от New-Team | D | Лицензия скачать торрент бесплатно
        АНОНСЫ МОИХ РАЗДАЧ
        (просмотров: 901)
        Экипаж (2016) BDRip от New-Team | D | Лицензия скачать торрент бесплатно
        АНОНСЫ МОИХ РАЗДАЧ
        (просмотров: 901)
        Гений / Genius (2016) WEB-DLRip 1080p | Звук TS скачать торрент бесплатно

        (просмотров: 891)
        Демон внутри / Вскрытие Джейн Доу / The Autopsy of Jane Doe (2016) WEB-DLRip от Scarabey | P скачать торрент бесплатно
        Мы В КОНТАКТЕ =)
        (просмотров: 811)
        Кухня (1-5 сезоны: 1-100 серии из 100 + 2 бонуса) / 2012-2015 / РУ / DVDRip, WEB-DLRip скачать торрент бесплатно

        (просмотров: 811)
        Бригада (2002) HDDVDRip-AVC от TORRENT-45

        (просмотров: 811)
        Равные / Equals (2015) WEB-DLRip | L2 скачать торрент бесплатно

        (просмотров: 811)