.
Авторизация | Регистрация




Класс / Class (1983) BDRip 720p | P2, A скачать торрент бесплатно

Опубликовал: Админ | Дата: 4-10-2016, 05:00 | Просмотров: 29



Детально о кино
Русское название: Класс
Русское название в мировом прокате: Class
Создали в: 1983
Категория жанра: драма, мелодрама, комедия
Главный режиссер: Льюис Джон Карлино

Актеры
Жаклин Биссет, Роб Лоу, Эндрю МакКарти, Клифф Робертсон, Стюарт Марголин, Джон Кьюсак, Алан Рак, Родни Пирсон, Римэк Рамсей, Вирджиния Мэдсен

Сюжет фильма

Старшеклассник Джонатан поступает в престижную частную школу. Веселые приколы и розыгрыши делают Джонатана и его соседа по комнате Скипа друзьями. И стоит только Джонатану признаться, что он еще девственник, Скип организует свидание с двумя ученицами женской школы. Но Джонатан напивается и на редкость неуклюже ведет себя на вечеринке.
Тогда Скип отправляет его в Чикаго, дав адреса нескольких злачных мест, и Джонатан знакомится с эффектной 38-летней женщиной Эллен. Они занимаются любовью в лифте, а затем перебираются в мотель, где проводят несколько наполненных страстью дней.
Но Эллен узнает, что Джонатан еще школьник, и исчезает...

Снималось в: США
Киностудия: Orion Pictures
Время просмотра: 01: 38: 30
Перевод текста: Профессиональный (двухголосый, закадровый) НТВ+ + Профессиональный (двухголосый, закадровый) Екатеринбург Арт + Авторский (одноголосый, закадровый) А.Михалёв
Файл
Тип видео: Matroska
Информация о видео: 1280x694 at 23.976 fps, x264@L4.1, ~5731 kbps avg
Информация о звуке#1: Russian: 48 kHz, AC3, 2/0 (L, R) ch, ~192 kbps avg |Двухголосый закадровый, НТВ+|
Информация о звуке#2: Russian: 48 kHz, AC3, 2/0 (L, R) ch, ~192 kbps avg |Двухголосый закадровый, Екатеринбург Арт|
Информация о звуке#3: Russian: 48 kHz, AC3, 2/0 (L, R) ch, ~192 kbps avg |Авторский, А.Михалёв|
Информация о звуке#4: English: 48 kHz, AC3, 2/0 (L, R) ch, ~192 kbps avg
Субтитры: None
***Релиз - msltel.
MI
Общее
Уникальный идентификатор : 209517399852898549353162301257431015514 (0x9D9F955B51F640A4BB6C5ED11BCA605A)
Полное имя : Class.1983.BDRip.720p.mkv
Формат : Matroska
Версия формата : Version 4/Version 2
Размер файла : 4, 56 Гбайт
Продолжительность : 1 ч. 38 м.
Общий поток : 6630 Кбит/сек
Дата кодирования : UTC 2016-10-01 01: 27: 07
Программа кодирования : mkvmerge v8.2.0 (;World of Adventure;) 64bit
Библиотека кодирования : libebml v1.3.1 + libmatroska v1.4.2
Видео
Идентификатор : 1
Формат : AVC
Формат/Информация : Advanced Video Codec
Профиль формата : High@L4.1
Параметр CABAC формата : Да
Параметр ReFrames формата : 9 кадров
Идентификатор кодека : V_MPEG4/ISO/AVC
Продолжительность : 1 ч. 38 м.
Битрейт : 5731 Кбит/сек
Ширина : 1280 пикселей
Высота : 694 пикселя
Соотношение сторон : 1, 85: 1
Режим частоты кадров : Постоянный
Частота кадров : 23, 976 кадра/сек
Цветовое пространство : YUV
Субдискретизация насыщенности : 4: 2: 0
Битовая глубина : 8 бит
Тип развёртки : Прогрессивная
Бит/(Пиксели*Кадры) : 0.269
Размер потока : 3, 94 Гбайт (86%)
Библиотека кодирования : x264 core 146 r2538 121396c
Настройки программы : cabac=1/ref=9/deblock=1: -3: -3/analyse=0x3: 0x113/me=umh/subme=10/psy=1/psy_rd=1.00: 0.15/mixed_ref=1/me_range=32/chroma_me=1/trellis=2/8x8dct=1/cqm=0/deadzone=21, 11/fast_pskip=1/chroma_qp_offset=-3/threads=6/lookahead_threads=1/sliced_threads=0/nr=0/decimate=1/interlaced=0/bluray_compat=0/constrained_intra=0/bframes=8/b_pyramid=2/b_adapt=2/b_bias=0/direct=1/weightb=1/open_gop=0/weightp=2/keyint=230/keyint_min=23/scenecut=40/intra_refresh=0/rc_lookahead=40/rc=crf/mbtree=0/crf=19.7/qcomp=0.60/qpmin=0/qpmax=69/qpstep=4/vbv_maxrate=40000/vbv_bufsize=50000/crf_max=0.0/nal_hrd=none/filler=0/ip_ratio=1.40/pb_ratio=1.30/aq=1: 1.00
Язык : English
Default : Да
Forced : Нет
Аудио #1
Идентификатор : 2
Формат : AC-3
Формат/Информация : Audio Coding 3
Расширение режима : CM (complete main)
Параметр Endianness формата : Big
Идентификатор кодека : A_AC3
Продолжительность : 1 ч. 38 м.
Вид битрейта : Постоянный
Битрейт : 192 Кбит/сек
Каналы : 2 канала
Расположение каналов : Front: L R
Частота : 48, 0 КГц
Битовая глубина : 16 бит
Метод сжатия : С потерями
Размер потока : 135 Мбайт (3%)
Заголовок : DVO (HTB+)
Язык : Russian
Default : Да
Forced : Нет
Аудио #2
Идентификатор : 3
Формат : AC-3
Формат/Информация : Audio Coding 3
Расширение режима : CM (complete main)
Параметр Endianness формата : Big
Идентификатор кодека : A_AC3
Продолжительность : 1 ч. 38 м.
Вид битрейта : Постоянный
Битрейт : 192 Кбит/сек
Каналы : 2 канала
Расположение каналов : Front: L R
Частота : 48, 0 КГц
Битовая глубина : 16 бит
Метод сжатия : С потерями
Размер потока : 135 Мбайт (3%)
Заголовок : DVO (Екатеринбург Арт)
Язык : Russian
Default : Нет
Forced : Нет
Аудио #3
Идентификатор : 4
Формат : AC-3
Формат/Информация : Audio Coding 3
Расширение режима : CM (complete main)
Параметр Endianness формата : Big
Идентификатор кодека : A_AC3
Продолжительность : 1 ч. 38 м.
Вид битрейта : Постоянный
Битрейт : 192 Кбит/сек
Каналы : 2 канала
Расположение каналов : Front: L R
Частота : 48, 0 КГц
Битовая глубина : 16 бит
Метод сжатия : С потерями
Размер потока : 135 Мбайт (3%)
Заголовок : AVO (Алексей Михалёв)
Язык : Russian
Default : Нет
Forced : Нет
Аудио #4
Идентификатор : 5
Формат : AC-3
Формат/Информация : Audio Coding 3
Расширение режима : CM (complete main)
Параметр Endianness формата : Big
Идентификатор кодека : A_AC3
Продолжительность : 1 ч. 38 м.
Вид битрейта : Постоянный
Битрейт : 192 Кбит/сек
Каналы : 2 канала
Расположение каналов : Front: L R
Частота : 48, 0 КГц
Битовая глубина : 16 бит
Метод сжатия : С потерями
Размер потока : 135 Мбайт (3%)
Заголовок : original
Язык : English
Default : Нет
Forced : Нет
Скриншоты

Размер скачиваемого торрента: 4.56 GB (4899040906 Bytes)

Класс/Class (1983) BDRip 720p | P2, A
загрузка...
Рейтинг →
 (голосов: 1, оценка 4/5, голосовать можно 1 раз )

Другие торренты по теме:



    Комментарии (0):

    Информация

    Информация

      Посетители, находящиеся в группе Гости, не могут оставлять комментарии в данной новости.

      ↓ Меню



      ↓ Опрос

      А Вы добавили сайт в закладки?
      Да
      Не


      Top 10 за неделю (Фильмы)