.
Авторизация | Регистрация
» » Круг / Cirkeln (2015) HDRip от Portablius | L2 скачать торрент бесплатно




    Круг / Cirkeln (2015) HDRip от Portablius | L2 скачать торрент бесплатно

    Опубликовал: Админ | Дата: 4-10-2016, 05:01 | Просмотров: 38



    Детально о кино
    Русское название: Круг
    Русское название в мировом прокате: Cirkeln
    Создали в: 2015
    Категория жанра: ужасы, фэнтези, триллер, драма, детектив
    Главный режиссер: Леван Акин

    Актеры
    Йозефин Асплунд, Хелена Энгстрём, Миранда Фридман, Ирма фон Платен, Ханна Асп, Леона Аксельсен, Рут Вега Фернандез

    Сюжет фильма
    В маленьком шведском городке ученики местной школы готовятся к началу нового учебного года, ссорятся с друзьями, выясняют отношения с родителями… Жизнь идёт своим чередом, пока однажды в школьном туалете не обнаруживают тело подростка и над городом не встает кроваво-красная луна. Оказывается, город стал местом борьбы добра и зла и теперь только от немногих избранных зависит исход мировой битвы…

    Снималось в: Швеция
    Киностудия: RMV Film
    Время просмотра: 02: 18: 10
    Перевод текста: Любительский (двухголосый, закадровый) | den904 DeadSno
    Субтитры: Нет
    Семпл
    Файл
    Кодек для видео: XviD
    Качество фильма: HDRip
    Информация о видео: 720x304 (2.37: 1), 25 fps, XviD build 73 ~619 kbps avg, 0.11 bit/pixel
    Информация о звуке: 48 kHz, MPEG Layer 3, 2 ch, ~128.00 kbps avg
    MediaInfo
    Общее
    Полное имя : Cirkeln.2015.HDRip.ot.Portablius.avi
    Формат : AVI
    Формат/Информация : Audio Video Interleave
    Размер файла : 749 Мбайт
    Продолжительность : 2 ч. 18 м.
    Общий поток : 757 Кбит/сек
    Программа кодирования : VirtualDubMod 1.5.10.3 | www.virtualdub-fr.org || (build 2550/release)
    Библиотека кодирования : VirtualDubMod build 2550/release
    Видео
    Идентификатор : 0
    Формат : MPEG-4 Visual
    Профиль формата : Advanced Simple@L5
    Параметр BVOP формата : 1
    Параметр QPel формата : Нет
    Параметр GMC формата : Без точки перехода
    Параметр матрицы формата : Выборочная
    Идентификатор кодека : XVID
    Идентификатор кодека/Подсказка : XviD
    Продолжительность : 2 ч. 18 м.
    Битрейт : 620 Кбит/сек
    Ширина : 720 пикселей
    Высота : 304 пикселя
    Соотношение сторон : 2, 35: 1
    Частота кадров : 25, 000 кадров/сек
    Цветовое пространство : YUV
    Субдискретизация насыщенности : 4: 2: 0
    Битовая глубина : 8 бит
    Тип развёртки : Прогрессивная
    Метод сжатия : С потерями
    Бит/(Пиксели*Кадры) : 0.113
    Размер потока : 612 Мбайт (82%)
    Библиотека кодирования : XviD 73
    Аудио
    Идентификатор : 1
    Формат : MPEG Audio
    Версия формата : Version 1
    Профиль формата : Layer 3
    Идентификатор кодека : 55
    Идентификатор кодека/Подсказка : MP3
    Продолжительность : 2 ч. 18 м.
    Вид битрейта : Постоянный
    Битрейт : 128 Кбит/сек
    Каналы : 2 канала
    Частота : 48, 0 КГц
    Метод сжатия : С потерями
    Размер потока : 126 Мбайт (17%)
    Выравнивание : Соединение по промежуткам
    Продолжительность промежутка : 40 мс. (1, 00 видеокадр)
    Время предзагрузки промежутка : 504 мс.
    Библиотека кодирования : LAME3.99r
    Залил: Evgen Portable
    Размер скачиваемого торрента: 748.52 MB (784879616 Bytes)


    Круг/Cirkeln (2015) HDRip от Portablius | L2
    загрузка...
    Рейтинг →
     (голосов: 1, оценка 3/5, голосовать можно 1 раз )

    Другие торренты по теме:

  • Круг / Cirkeln (2015) BDRip 720p | А, L2, L1 скачать торрент бесплатно


    • Комментарии (0):

      Информация

      Информация

        Посетители, находящиеся в группе Гости, не могут оставлять комментарии в данной новости.

        ↓ Меню



        ↓ Опрос

        А Вы добавили сайт в закладки?
        Да
        Не


        Top 10 за неделю (Фильмы)