.
Авторизация | Регистрация
Хочешь лучшие торренты? Добавь свой email!
Добавить
» » Вопль / Goksung (2016) BDRip 1080p от ExKinoRay | L2 торрент скачать бесплатно




    Вопль / Goksung (2016) BDRip 1080p от ExKinoRay | L2 торрент скачать бесплатно

    Опубликовал: Админ | Дата: 4-10-2016, 05:01 | Просмотров: 100



    Детально о кино
    Русское название: Вопль
    Русское название в мировом прокате: Goksung/The Wailing
    Создали в: 2016
    Категория жанра: Триллер, драма, мистика
    Главный режиссер: Хон Чжин На

    Актеры
    До Вон Квак, Чжон Мин Хван, Дзюн Кунимура, У Хи Чон, Хван Хи Ким, Со Ён Чан, Хо Чжин, Хан Чхоль Чо, Кан Кук Сон, До Ён Ким, Ки Чхон Ким
    О фильме:
    В небольшой корейской деревне распространилась странная болезнь, от которой начали умирать люди. Полицейские подозревают, что к смертям причастен приехавший недавно японец. Недуг продолжает поражать жителей, и чем дальше он заходит, тем более очевидным становится его сверхъестественное происхождение, и помочь здесь может лишь колдовство…

    Снималось в: Южная Корея
    Киностудия: 20th Century Fox, Ivanhoe Pictures, Side Mirror
    Время просмотра: 02: 36: 08
    Перевод текста: Любительский двухголосый (закадровый) | DeadSno den904
    Файл
    Кодек для видео: MPEG-4
    Качество фильма: BDRip 1080p
    Информация о видео: 1920x800, 16.5 Mbit/s, 24.000 fps
    Информация о звуке:
    Информация о звуке #01: 48 kHz, AC3, 2.0, 192 Kbps | Любительский двухголосый (закадровый) | DeadSno den904 |
    Информация о звуке #02: 48 kHz, AC3, 5.1, 640 kbps | Оригинал |
    Субтитры: Английские
    MI
    General
    Unique ID : 249803608894720210986277269987961589390 (0xBBEE6CD0A4839DDFA74CD02619BBCE8E)
    Complete name : H: VideoThe.Wailing.2016.BDRip.1080p.ExKinoRay.mkv
    Format : Matroska
    Format version : Version 4/Version 2
    File size : 18.9 GiB
    Duration : 2 h 36 min
    Overall bit rate : 17.3 Mb/s
    Movie name : ***селезень***
    Encoded date : UTC 2016-10-03 01: 46: 58
    Writing application : mkvmerge v8.3.0 (;Over the Horizon;) 64bit
    Writing library : libebml v1.3.1 + libmatroska v1.4.2
    Video
    ID : 1
    Format : AVC
    Format/Info : Advanced Video Codec
    Format profile : High@L4.1
    Format settings, CABAC : Yes
    Format settings, ReFrames : 5 frames
    Codec ID : V_MPEG4/ISO/AVC
    Duration : 2 h 36 min
    Bit rate : 16.5 Mb/s
    Width : 1 920 pixels
    Height : 800 pixels
    Display aspect ratio : 2.40: 1
    Frame rate mode : Constant
    Frame rate : 24.000 FPS
    Color space : YUV
    Chroma subsampling : 4: 2: 0
    Bit depth : 8 bits
    Scan type : Progressive
    Bits/(Pixel*Frame) : 0.448
    Stream size : 18.0 GiB (95%)
    Title : ***селезень***
    Writing library : x264 core 146 r2538 121396c
    Encoding settings : cabac=1/ref=5/deblock=1: -3: -3/analyse=0x3: 0x133/me=umh/subme=10/psy=1/psy_rd=1.00: 0.00/mixed_ref=1/me_range=48/chroma_me=1/trellis=2/8x8dct=1/cqm=0/deadzone=21, 11/fast_pskip=0/chroma_qp_offset=-2/threads=12/lookahead_threads=1/sliced_threads=0/nr=0/decimate=0/interlaced=0/bluray_compat=0/constrained_intra=0/bframes=6/b_pyramid=2/b_adapt=2/b_bias=0/direct=3/weightb=1/open_gop=0/weightp=2/keyint=230/keyint_min=22/scenecut=40/intra_refresh=0/rc_lookahead=60/rc=2pass/mbtree=1/bitrate=16500/ratetol=1.0/qcomp=0.60/qpmin=0/qpmax=69/qpstep=4/cplxblur=20.0/qblur=0.5/vbv_maxrate=50000/vbv_bufsize=50000/nal_hrd=none/filler=0/ip_ratio=1.40/aq=1: 1.00
    Language : English
    Default : Yes
    Forced : No
    Audio #1
    ID : 2
    Format : AC-3
    Format/Info : Audio Coding 3
    Mode extension : CM (complete main)
    Format settings, Endianness : Big
    Codec ID : A_AC3
    Duration : 2 h 35 min
    Bit rate mode : Constant
    Bit rate : 192 kb/s
    Channel(s) : 2 channels
    Channel positions : Front: L R
    Sampling rate : 48.0 kHz
    Frame rate : 31.250 FPS (1536 spf)
    Compression mode : Lossy
    Delay relative to video : 34 s 200 ms
    Stream size : 214 MiB (1%)
    Title : DVO DeadSno den904
    Language : Russian
    Default : Yes
    Forced : No
    Audio #2
    ID : 3
    Format : AC-3
    Format/Info : Audio Coding 3
    Mode extension : CM (complete main)
    Format settings, Endianness : Big
    Codec ID : A_AC3
    Duration : 2 h 36 min
    Bit rate mode : Constant
    Bit rate : 640 kb/s
    Channel(s) : 6 channels
    Channel positions : Front: L C R, Side: L R, LFE
    Sampling rate : 48.0 kHz
    Frame rate : 31.250 FPS (1536 spf)
    Compression mode : Lossy
    Stream size : 715 MiB (4%)
    Title : Original
    Language : Korean
    Default : No
    Forced : No
    Text
    ID : 4
    Format : UTF-8
    Codec ID : S_TEXT/UTF8
    Codec ID/Info : UTF-8 Plain Text
    Duration : 2 h 29 min
    Bit rate : 26 b/s
    Count of elements : 1298
    Stream size : 28.6 KiB (0%)
    Title : Full
    Language : English
    Default : No
    Forced : No
    Menu
    00: 00: 00.000 : en: 00: 00: 00.000
    00: 08: 24.671 : en: 00: 08: 24.671
    00: 18: 40.703 : en: 00: 18: 40.703
    00: 28: 34.212 : en: 00: 28: 34.212
    00: 40: 01.399 : en: 00: 40: 01.399
    00: 48: 46.841 : en: 00: 48: 46.841
    01: 02: 14.314 : en: 01: 02: 14.314
    01: 09: 29.665 : en: 01: 09: 29.665
    01: 21: 55.869 : en: 01: 21: 55.869
    01: 29: 26.486 : en: 01: 29: 26.486
    01: 38: 53.469 : en: 01: 38: 53.469
    01: 48: 15.364 : en: 01: 48: 15.364
    02: 03: 10.508 : en: 02: 03: 10.508
    02: 07: 36.816 : en: 02: 07: 36.816


    Релиз подготовил: Автор релиза:
    Размер скачиваемого торрента: 18.90 GB (20291966304 Bytes)

    Вопль/Goksung (2016) BDRip 1080p от ExKinoRay | L2
    загрузка...
    Рейтинг →
     (голосов: 1, оценка 5/5, голосовать можно 1 раз )

    Другие торренты по теме:

  • Вопль / Goksung (2016) HDRip | L2


    • Комментарии (0):

      Информация

      Информация

        Посетители, находящиеся в группе Гости, не могут оставлять комментарии в данной новости.

        ↓ Меню



        ↓ Опрос

        А Вы добавили сайт в закладки?
        Да
        Не


        Top 10 за месяц (Фильмы)