.
Авторизация | Регистрация
» » Любовь не по размеру / Un homme la hauteur (2016) BDRip 1080p от ExKinoRay | iTunes скачать торрент бесплатно




    Любовь не по размеру / Un homme la hauteur (2016) BDRip 1080p от ExKinoRay | iTunes скачать торрент бесплатно

    Опубликовал: Админ | Дата: 4-10-2016, 05:01 | Просмотров: 72



    Детально о кино
    Русское название: Любовь не по размеру
    Русское название в мировом прокате: Un homme ? la hauteur
    Создали в: 2016
    Категория жанра: Комедия
    Главный режиссер: Лоран Тирар

    Актеры
    Жан Дюжарден, Виржини Эфира, Седрик Кан, Стефани Папаниан, Сезар Домбуа, Эдмон Франчи, Мануэлль Гайар, Бруно Гомила, Камилль Дамур, Франсуа-Доминик Блен
    О фильме:
    Потерянный мобильник оборачивается для Дианы знакомством с поистине невероятным человеком по имени Александр. Он умен, неутомим и чертовски обаятелен. У него замечательное чувство юмора и, кажется, нет недостатков. Кроме одного... Его рост - чуть больше метра. Это небольшое препятствие оказывается источником огромных проблем и множества неудобных и смешных ситуаций для Дианы. Но настоящая любовь может победить всё, если, конечно, это очень большая любовь.

    Снималось в: Франция
    Киностудия: Canal+, Creative Andina
    Время просмотра: 01: 37: 57
    Перевод текста: Дублированный | iTunes
    Файл
    Кодек для видео: MPEG-4
    Качество фильма: BDRip 1080p
    Информация о видео: 1920x800, 10.6 Mbit/s, 23.976 fps
    Информация о звуке:
    Информация о звуке #01: 48 kHz, AC3, 5.1, 384 Kbps | Дублированный | iTunes |
    Информация о звуке #02: 48 kHz, AC3, 5.1, 640 kbps | Оригинал |
    MI
    General
    Unique ID : 217351170772004770239304003606058083276 (0xA38450153780A183B778D8C2CD23A3CC)
    Complete name : H: VideoUn.homme.?.la.Hauteur.BDRip.1080p.ExKinoRay.mkv
    Format : Matroska
    Format version : Version 4/Version 2
    File size : 7.94 GiB
    Duration : 1 h 37 min
    Overall bit rate : 11.6 Mb/s
    Movie name : ***селезень***
    Encoded date : UTC 2016-10-02 08: 55: 55
    Writing application : mkvmerge v8.3.0 (;Over the Horizon;) 64bit
    Writing library : libebml v1.3.1 + libmatroska v1.4.2
    Video
    ID : 1
    Format : AVC
    Format/Info : Advanced Video Codec
    Format profile : High@L4.1
    Format settings, CABAC : Yes
    Format settings, ReFrames : 5 frames
    Codec ID : V_MPEG4/ISO/AVC
    Duration : 1 h 37 min
    Bit rate : 10.6 Mb/s
    Width : 1 920 pixels
    Height : 800 pixels
    Display aspect ratio : 2.40: 1
    Frame rate mode : Constant
    Frame rate : 24.000 FPS
    Color space : YUV
    Chroma subsampling : 4: 2: 0
    Bit depth : 8 bits
    Scan type : Progressive
    Bits/(Pixel*Frame) : 0.287
    Stream size : 7.24 GiB (91%)
    Title : ***селезень***
    Writing library : x264 core 146 r2538 121396c
    Encoding settings : cabac=1/ref=5/deblock=1: -3: -3/analyse=0x3: 0x133/me=umh/subme=11/psy=1/psy_rd=1.00: 0.00/mixed_ref=1/me_range=32/chroma_me=1/trellis=2/8x8dct=1/cqm=0/deadzone=21, 11/fast_pskip=0/chroma_qp_offset=-2/threads=12/lookahead_threads=1/sliced_threads=0/nr=0/decimate=0/interlaced=0/bluray_compat=0/constrained_intra=0/bframes=8/b_pyramid=2/b_adapt=2/b_bias=0/direct=3/weightb=1/open_gop=0/weightp=2/keyint=240/keyint_min=23/scenecut=40/intra_refresh=0/rc_lookahead=0/rc=2pass/mbtree=0/bitrate=10587/ratetol=1.0/qcomp=0.70/qpmin=0/qpmax=69/qpstep=4/cplxblur=20.0/qblur=0.5/vbv_maxrate=50000/vbv_bufsize=62500/nal_hrd=none/filler=0/ip_ratio=1.20/pb_ratio=1.20/aq=3: 0.80
    Language : French
    Default : Yes
    Forced : No
    Audio #1
    ID : 2
    Format : AC-3
    Format/Info : Audio Coding 3
    Mode extension : CM (complete main)
    Format settings, Endianness : Big
    Codec ID : A_AC3
    Duration : 1 h 37 min
    Bit rate mode : Constant
    Bit rate : 384 kb/s
    Channel(s) : 6 channels
    Channel positions : Front: L C R, Side: L R, LFE
    Sampling rate : 48.0 kHz
    Frame rate : 31.250 FPS (1536 spf)
    Compression mode : Lossy
    Stream size : 269 MiB (3%)
    Title : iTunes
    Language : Russian
    Default : Yes
    Forced : No
    Audio #2
    ID : 3
    Format : AC-3
    Format/Info : Audio Coding 3
    Mode extension : CM (complete main)
    Format settings, Endianness : Big
    Codec ID : A_AC3
    Duration : 1 h 37 min
    Bit rate mode : Constant
    Bit rate : 640 kb/s
    Channel(s) : 6 channels
    Channel positions : Front: L C R, Side: L R, LFE
    Sampling rate : 48.0 kHz
    Frame rate : 31.250 FPS (1536 spf)
    Compression mode : Lossy
    Stream size : 448 MiB (6%)
    Language : French
    Default : No
    Forced : No
    Menu
    00: 00: 00.000 : en: 00: 00: 00.000
    00: 04: 33.190 : en: 00: 04: 33.190
    00: 07: 24.235 : en: 00: 07: 24.235
    00: 12: 07.435 : en: 00: 12: 07.435
    00: 16: 39.790 : en: 00: 16: 39.790
    00: 22: 47.616 : en: 00: 22: 47.616
    00: 24: 59.623 : en: 00: 24: 59.623
    00: 30: 18.233 : en: 00: 30: 18.233
    00: 35: 29.794 : en: 00: 35: 29.794
    00: 41: 32.990 : en: 00: 41: 32.990
    00: 45: 20.051 : en: 00: 45: 20.051
    00: 51: 35.676 : en: 00: 51: 35.676
    00: 54: 11.039 : en: 00: 54: 11.039
    00: 57: 40.123 : en: 00: 57: 40.123
    01: 04: 18.521 : en: 01: 04: 18.521
    01: 09: 18.988 : en: 01: 09: 18.988
    01: 12: 46.279 : en: 01: 12: 46.279
    01: 18: 07.391 : en: 01: 18: 07.391
    01: 23: 20.245 : en: 01: 23: 20.245
    01: 27: 34.749 : en: 01: 27: 34.749
    01: 32: 15.947 : en: 01: 32: 15.947
    01: 36: 40.461 : en: 01: 36: 40.461
    01: 40: 12.590 : en: 01: 40: 12.590
    01: 43: 14.814 : en: 01: 43: 14.814


    Релиз подготовил: Автор релиза:

    Онлайн видео Любовь не по размеру


    Размер скачиваемого торрента: 7.94 GB (8524470152 Bytes)

    Любовь не по размеру/Un homme la hauteur (2016) BDRip 1080p от ExKinoRay | iTunes
    загрузка...
    Рейтинг →
     (голосов: 1, оценка 3/5, голосовать можно 1 раз )

    Другие торренты по теме:

  • Любовь не по размеру / Un homme la hauteur (2016) WEB-DL 720p | iTunes скачать торрент бесплатно
  • Любовь не по размеру / Un homme a la hauteur (2016) WEB-DL-AVC | D | iTunes скачать торрент бесплатно
  • Любовь не по размеру / Un homme la hauteur (2016) WEB-DLRip от Scarabey | iTunes скачать торрент бесплатно
  • Любовь не по размеру / Un homme la hauteur (2016) HDRip от MegaPeer | iTunes скачать торрент бесплатно
  • Любовь не по размеру / Un homme la hauteur (2016) BDRip 720p | iTunes скачать торрент бесплатно
  • Любовь не по размеру / Un homme la hauteur (2016) BDRip от MegaPeer | iTunes скачать торрент бесплатно
  • Любовь не по размеру / Un homme la hauteur (2016) BDRemux 1080p от ExKinoRay | iTunes скачать торрент бесплатно
  • Любовь не по размеру / Un homme la hauteur (2016) BDRemux 1080p от ExKinoRay | RUS Transfer | Лицензия скачать торрент бесплатно


    • Комментарии (0):

      Информация

      Информация

        Посетители, находящиеся в группе Гости, не могут оставлять комментарии в данной новости.

        ↓ Меню



        ↓ Опрос

        А Вы добавили сайт в закладки?
        Да
        Не


        Top 10 за неделю (Фильмы)