.
Авторизация | Регистрация
» » Она Вас любит (1956) DVDRip от New-Team скачать торрент бесплатно




    Она Вас любит (1956) DVDRip от New-Team скачать торрент бесплатно

    Опубликовал: Админ | Дата: 5-10-2016, 15:42 | Просмотров: 24



    Снималось в: СССР
    Создали в: Ленфильм
    Категория жанра: мелодрама, комедия
    Создали в: 1956
    Время просмотра: 01: 19: 58
    Перевод текста: Не требуется
    Субтитры подготовлены: нет
    Оригинальная аудиодорожка: русский
    Главный режиссер: Семен Деревянский, Рафаил Суслович

    Актеры

    Георгий Вицин, Инна Кмит, Лидия Сухаревская, Тамара Носова, Александр Ширвиндт, Игорь Дмитриев, Лидия Атманаки, Константин Сорокин, Рэм Лебедев...
    Полный список актёров
    Описание:
    Скромный и застенчивый работник зоопарка по фамилии Канарейкин влюбляется в девушку с обложки журнала – победительницу легкоатлетических соревнований. Он пишет ей письмо, но его приятель-фотограф, случайно вместо фотографии Канарейкина вкладывает в конверт фото другого молодого человека - певца, дипломанта конкурса вокалистов, красавца, любимца женщин...



    Источник: DVD5 R5
    Качество фильма видео: DVDRip
    Тип видео видео: AVI
    Информация о видео: 640x480 (4: 3), 25 fps, XviD ~ 1161 kbps avg, 0.151 bit/pixel
    Информация о звуке: 48 kHz, MP3 2.0, 128 kbps
    Раздача от:
    MediaInfo

    Общее
    Полное имя : Ona.vas.lyubit.1956.DVDRip-745_New-team_by_AVP_Studio.avi
    Формат : AVI
    Формат/Информация : Audio Video Interleave
    Размер файла : 743 Мбайт
    Продолжительность : 1 ч. 19 м.
    Общий поток : 1299 Кбит/сек
    Программа кодирования : VirtualDubMod 1.5.10.3 | www.virtualdub-fr.org || (build 2550/release)
    Библиотека кодирования : VirtualDubMod build 2550/release
    Видео
    Идентификатор : 0
    Формат : MPEG-4 Visual
    Профиль формата : Advanced Simple@L5
    Параметр BVOP формата : 1
    Параметр QPel формата : Нет
    Параметр GMC формата : Без точки перехода
    Параметр матрицы формата : Выборочная
    Идентификатор кодека : XVID
    Идентификатор кодека/Подсказка : XviD
    Продолжительность : 1 ч. 19 м.
    Битрейт : 1161 Кбит/сек
    Ширина : 640 пикселей
    Высота : 480 пикселей
    Соотношение сторон : 4: 3
    Частота кадров : 25, 000 кадров/сек
    Цветовое пространство : YUV
    Субдискретизация насыщенности : 4: 2: 0
    Битовая глубина : 8 бит
    Тип развёртки : Прогрессивная
    Метод сжатия : С потерями
    Бит/(Пиксели*Кадры) : 0.151
    Размер потока : 664 Мбайт (89%)
    Библиотека кодирования : XviD 1.2.1 (UTC 2008-12-04)
    Аудио
    Идентификатор : 1
    Формат : MPEG Audio
    Версия формата : Version 1
    Профиль формата : Layer 3
    Идентификатор кодека : 55
    Идентификатор кодека/Подсказка : MP3
    Продолжительность : 1 ч. 19 м.
    Вид битрейта : Постоянный
    Битрейт : 128 Кбит/сек
    Каналы : 2 канала
    Частота : 48, 0 КГц
    Метод сжатия : С потерями
    Размер потока : 73, 2 Мбайт (10%)
    Выравнивание : Соединение по промежуткам
    Продолжительность промежутка : 40 мс. (1, 00 видеокадр)
    Время предзагрузки промежутка : 504 мс.
    Библиотека кодирования : LAME3.99r
    Залил: AVPStudio

    Онлайн видео Она Вас любит (1956) DVDRip от New


    Размер скачиваемого торрента: 742.73 MB (778811392 Bytes)


    Она Вас любит (1956) DVDRip от New-Team
    загрузка...
    Рейтинг →
     (голосов: 1, оценка 5/5, голосовать можно 1 раз )

    Другие торренты по теме:

  • Каждому можно любить / Kademu wolno kocha (1933) DVDRip | A торрент скачать бесплатно
  • Стучись в любую дверь / Knock on Any Door (1949) DVDRip от Феникс-клуб торрент скачать бесплатно
  • Discovery: Выжить любой ценой / Ultimate Survival / Man vs. Wild (2006-2011) DVDRip, HDTVRip | P1 торрент скачать бесплатно
  • Мужчина, который любил женщин / Lhomme qui aimait les femmes (1977) DVDRip торрент скачать бесплатно
  • Мужчина, который любил женщин / The Man Who Loved Women (1983) DVDRip торрент скачать бесплатно
  • Те, кто меня любит, поедут поездом / Ceux qui maiment prendront le train (1998) DVDRip торрент скачать бесплатно
  • Главное - любить / Limportant cest daimer (1975) DVDRip от Кинорадиомагия скачать через торрент бесплатно
  • Мы так любили друг друга / Ceravamo tanto amati (1974) DVDRip | A скачать через торрент бесплатно


    • Комментарии (0):

      Информация

      Информация

        Посетители, находящиеся в группе Гости, не могут оставлять комментарии в данной новости.

        ↓ Меню



        ↓ Опрос

        А Вы добавили сайт в закладки?
        Да
        Не


        Top 10 за неделю (Фильмы)