.
Авторизация | Регистрация
» » Уровень / The Leve (2016) HDTV 720р | NEON Studio скачать торрент бесплатно




    Уровень / The Leve (2016) HDTV 720р | NEON Studio скачать торрент бесплатно

    Опубликовал: Админ | Дата: 5-10-2016, 15:43 | Просмотров: 21



    Русское название: Уровень
    Русское название в мировом прокате: The Level
    Создали в: 2016
    Категория жанра: триллер, драма
    Главный режиссер: Марк Эверест, Энди Годдард

    Актеры

    Линдси Колсон, Роб Джеймс-Колльер, Филип Гленистер, Ноэль Кларк, Джофф Белл, Лорни МакФадьен, Джейн Хазлгроув, Рут Маделей, Эшли Кумар, Келли Харрисон и др.
    Описание сериала:
    Детектив полиции оказывается в эпицентре самого опасного дела в ее жизни, когда ее прикрепляют к расследованию убийства торговца наркотиками. Но никто не подозревает, что она является пропавшим свидетелем, которого разыскивает полиция и убийца..
    Снималось в: Великобритания
    Время просмотра: ~00: 45: 00
    Перевод текста: Любительский (двухголосый) NEON Studio
    Субтитры: Отсутствуют

    Файл
    Тип видео: MKV
    Качество фильма: HDTV (720p)
    Информация о видео: MPEG-4 AVC, ~ 3000 Кбит/с, 1280x720
    Информация о звуке: 48 kHz, AC3 Dolby Digital, 2/0 (L, R) ch, ~192 kbps
    Релиз группа:

    MediaInfo
    Формат : Matroska
    Версия формата : Version 2
    Размер файла : 999 Мбайт
    Продолжительность : 45 м.
    Общий поток : 3042 Кбит/сек
    Дата кодирования : UTC 2016-10-04 15: 53: 43
    Программа кодирования : mkvmerge v4.9.1 (;Ich will;) сборка от Jul 11 2011 23: 53: 15
    Библиотека кодирования : libebml v1.2.1 + libmatroska v1.1.1
    Видео
    Идентификатор : 1
    Формат : AVC
    Формат/Информация : Advanced Video Codec
    Профиль формата : Main@L5.1
    Параметр CABAC формата : Да
    Параметр ReFrames формата : 1 кадр
    Режим смешивания : Header stripping
    Идентификатор кодека : V_MPEG4/ISO/AVC
    Продолжительность : 45 м.
    Битрейт : 3000 Кбит/сек
    Ширина : 1280 пикселей
    Высота : 720 пикселей
    Соотношение сторон : 16: 9
    Режим частоты кадров : Постоянный
    Частота кадров : 25, 000 кадров/сек
    Цветовое пространство : YUV
    Субдискретизация насыщенности : 4: 2: 0
    Битовая глубина : 8 бит
    Тип развёртки : Прогрессивная
    Бит/(Пиксели*Кадры) : 0.121
    Размер потока : 916 Мбайт (92%)
    Default : Да
    Forced : Нет
    Аудио
    Идентификатор : 2
    Формат : AC-3
    Формат/Информация : Audio Coding 3
    Расширение режима : CM (complete main)
    Параметр Endianness формата : Big
    Режим смешивания : Header stripping
    Идентификатор кодека : A_AC3
    Продолжительность : 45 м.
    Вид битрейта : Постоянный
    Битрейт : 192 Кбит/сек
    Каналы : 2 канала
    Расположение каналов : Front: L R
    Частота : 48, 0 КГц
    Частота кадров : 31, 250 кадров/сек (1536 spf)
    Метод сжатия : С потерями
    Размер потока : 63, 1 Мбайт (6%)
    Default : Да
    Forced : Нет
    Внимание! Раздача ведётся путём добавления новых серий
    Внимание! Раздача ведётся путём добавления новых серий; при каждом добавлении создаётся новый торрент. Чтобы начать докачку новой серии, пользователям необходимо сделать следующее:
    (1) остановить скачивание,
    (2) удалить старый торрент у себя из клиента (старые серии удалять не надо),
    (3) скачать новый торрент и запустить его у себя в клиенте вместо старого, при этом указать клиенту путь в старую папку куда и должно происходить скачивание новых серий.
    Ваш клиент при этом должен произвести хеширование (проверку) старой папки (если не производит сам - помогите ему сделать это), и будет докачивать только те серии которых у вас ещё нет. Старые серии при этом не удаляются, а продолжают раздаваться!
    Eсли вы уже удалили старые серии, то предотвратить повторную закачку старых серий можно, отжав галочку в соответсвующих местах при запуске нового торрента. По возможности, желательно не удалять старые серии как можно дольше чтобы релизёр не столько продолжал раздавать старые серии, а смог сконцентрироваться на новых.
    Скриншоты

    Залил: SPARTA111

    Онлайн видео Уровень


    Размер скачиваемого торрента: 999.11 MB (1047641055 Bytes)

    Уровень/The Leve (2016) HDTV 720р | NEON Studio
    загрузка...
    Рейтинг →
     (голосов: 1, оценка 5/5, голосовать можно 1 раз )

    Другие торренты по теме:

  • Специалист - Допечатная подготовка макетов для цифровой и офсетной печати. Уровень 1 / Уровень 2. Обучающий видеокурс (2011) PCRec торрент скачать бесплатно
  • Специалист - iPhone и iPad. Уровень 1. Разработка мобильных приложений под IOS. Обучающий видеокурс (2012) PCRec торрент скачать бесплатно
  • Три икса 2: Новый уровень / xXx: State of the Union (2005) HDRip от Scarabey | D торрент скачать бесплатно
  • ViTAMiN - Высший уровень (2013) MP3 торрент скачать бесплатно
  • Борисов И.О. - Специалист. РНР. Уровень 4. Проектирование и разработка сложных веб-проектов на РНР 5 (2013) PCRec торрент скачать бесплатно
  • Борисов И.О. - Специалист. PHP. Уровень 3. Профессиональная разработка на PHP5 (2013) PCRec торрент скачать бесплатно
  • Борисов И.О. - Специалист. PHP. Уровень 2. Разработка web - сайтов и взаимодействие с MySQL (2013) PCRec торрент скачать бесплатно
  • Борисов И.О. - Специалист. PHP. Уровень 1. Основы создания сайтов (2013) PCRec торрент скачать бесплатно


    • Комментарии (0):

      Информация

      Информация

        Посетители, находящиеся в группе Гости, не могут оставлять комментарии в данной новости.

        ↓ Меню



        ↓ Опрос

        А Вы добавили сайт в закладки?
        Да
        Не


        Top 10 за неделю (Фильмы)