.
Авторизация | Регистрация
» » Славные парни / The Nice Guys (2016) BDRip-AVC | Лицензия скачать торрент бесплатно




    Славные парни / The Nice Guys (2016) BDRip-AVC | Лицензия скачать торрент бесплатно

    Опубликовал: Админ | Дата: 6-10-2016, 05:00 | Просмотров: 56



    Симпатичная пара
    Детально о кино
    Русское название: Славные парни
    Русское название в мировом прокате: The Nice Guys
    Создали в: 2016
    Категория жанра: Криминал, комедия, боевик
    Главный режиссер: Шейн Блэк, Энтони Багароцци

    Актеры
    Райан Гослинг, Ким Бейсингер, Расселл Кроу, Энгаури Райс, Мэтт Бомер, Маргарет Куэлли, Йайа ДаКоста, Кит Дэвид, Бо Напп, Лоис Смит

    Сюжет фильма

    Что бывает, когда напарником брутального костолома становится субтильный лопух? Наемный охранник Джексон Хили и частный детектив Холланд Марч вынуждены работать в паре, чтобы распутать плевое дело о пропавшей девушке, которое оборачивается преступлением века.
    Смогут ли парни разгадать сложный ребус, если у каждого из них — свои, весьма индивидуальные методы.

    Снималось в: США, Великобритания
    Киностудия: Bloom, LHF Film, Lip Sync Productions, Misty Mountains, Nice Guys, Silver Pictures, Waypoint Entertainment
    Время просмотра: 01: 55: 43
    Перевод текста: Профессиональный (полное дублирование)BD RUS
    Файл
    Качество фильма: BDRip-AVC (исх.The.Nice.Guys.2016.1080p.BluRay.REMUX.AVC.DTS-HD.MA.5.1-FGT )
    Тип видео: MKV
    Кодек для видео: MPEG-4 AVC
    Информация о видео: 1152x480 (2, 40: 1), 23, 976 fps, MPEG-4 AVC ~1654 kbps avg, 0.125 bit/pixel
    Информация о звуке: 48 kHz, AC3, 6 ch, ~448.00 kbps avg | русский |Профессиональный (полное дублирование)BD RUS
    Информация о звуке: 48 kHz, AC3, 6 ch, ~448.00 kbps avg | английский | Оригинал
    Субтитры: Русские, английские
    Семпл
    Инфо-файл
    Общее
    Уникальный идентификатор : 172080373867851832800192081849008162532 (0x8175797800ABB1FABB899E4E556E86E4)
    Полное имя : D: The.Nice.Guys.2016.BDRip.x264.Rus.Eng.mkv
    Формат : Matroska
    Версия формата : Version 4/Version 2
    Размер файла : 2, 11 Гбайт
    Продолжительность : 1 ч. 55 м.
    Общий поток : 2602 Кбит/сек
    Название фильма : Славные парни/The Nice Guys (2016)
    Дата кодирования : UTC 2016-10-05 14: 39: 13
    Программа кодирования : mkvmerge v8.3.0 (;Over the Horizon;) 64bit
    Библиотека кодирования : libebml v1.3.1 + libmatroska v1.4.2
    DURATION : 01: 55: 52.384000000
    NUMBER_OF_FRAMES : 217262
    NUMBER_OF_BYTES : 389333504
    _STATISTICS_WRITING_APP : mkvmerge v8.3.0 (;Over the Horizon;) 64bit
    _STATISTICS_WRITING_DATE_UTC : 2016-10-05 14: 39: 13
    _STATISTICS_TAGS : BPS DURATION NUMBER_OF_FRAMES NUMBER_OF_BYTES
    Видео
    Идентификатор : 1
    Формат : AVC
    Формат/Информация : Advanced Video Codec
    Профиль формата : High@L4.1
    Параметр CABAC формата : Да
    Параметр ReFrames формата : 10 кадров
    Идентификатор кодека : V_MPEG4/ISO/AVC
    Продолжительность : 1 ч. 55 м.
    Битрейт : 1654 Кбит/сек
    Ширина : 1152 пикселя
    Высота : 480 пикселей
    Соотношение сторон : 2, 40: 1
    Режим частоты кадров : Постоянный
    Частота кадров : 23, 976 кадра/сек
    Цветовое пространство : YUV
    Субдискретизация насыщенности : 4: 2: 0
    Битовая глубина : 8 бит
    Тип развёртки : Прогрессивная
    Бит/(Пиксели*Кадры) : 0.125
    Размер потока : 1, 34 Гбайт (64%)
    Заголовок : The.Nice.Guys.2016.BDRip.x264.Rus.Eng
    Библиотека кодирования : x264 core 148 r2705+54 9f484c1 t_mod_Custom 8-bit@all X86_64
    Настройки программы : cabac=1/ref=10/deblock=1: -2: -2/analyse=0x3: 0x113/me=umh/subme=10/psy=1/fade_compensate=0.00/psy_rd=1.00: 0.00/mixed_ref=1/me_range=32/chroma_me=1/trellis=2/8x8dct=1/cqm=0/deadzone=21, 11/fast_pskip=0/chroma_qp_offset=-2/threads=6/lookahead_threads=1/sliced_threads=0/nr=0/decimate=1/interlaced=0/bluray_compat=0/constrained_intra=0/fgo=0/bframes=12/b_pyramid=2/b_adapt=2/b_bias=0/direct=1/weightb=1/open_gop=0/weightp=2/keyint=250/keyint_min=23/scenecut=40/intra_refresh=0/rc_lookahead=40/rc=crf/mbtree=0/crf=18.8800/qcomp=0.65/qpmin=0: 0: 0/qpmax=69: 69: 69/qpstep=4/vbv_maxrate=50000/vbv_bufsize=62500/crf_max=0.0/nal_hrd=none/filler=0/ip_ratio=1.27/pb_ratio=1.22/aq=3: 0.85/aq-sensitivity=10.00/aq-factor=1.00: 1.00: 1.00/aq2=0/aq3=0
    Язык : English
    Default : Да
    Forced : Нет
    DURATION : 01: 55: 57.075000000
    NUMBER_OF_FRAMES : 166803
    NUMBER_OF_BYTES : 1481789567
    _STATISTICS_WRITING_APP : mkvmerge v8.3.0 (;Over the Horizon;) 64bit
    _STATISTICS_WRITING_DATE_UTC : 2016-10-05 14: 39: 13
    _STATISTICS_TAGS : BPS DURATION NUMBER_OF_FRAMES NUMBER_OF_BYTES
    Аудио #1
    Идентификатор : 2
    Формат : AC-3
    Формат/Информация : Audio Coding 3
    Расширение режима : CM (complete main)
    Параметр Endianness формата : Big
    Идентификатор кодека : A_AC3
    Продолжительность : 1 ч. 55 м.
    Вид битрейта : Постоянный
    Битрейт : 448 Кбит/сек
    Каналы : 6 каналов
    Расположение каналов : Front: L C R, Side: L R, LFE
    Частота : 48, 0 КГц
    Метод сжатия : С потерями
    Размер потока : 372 Мбайт (17%)
    Заголовок : Dub | DD 5.1 @ 448 kbps - Blu Rya RUS
    Язык : Russian
    Default : Да
    Forced : Нет
    Аудио #2
    Идентификатор : 3
    Формат : AC-3
    Формат/Информация : Audio Coding 3
    Расширение режима : CM (complete main)
    Параметр Endianness формата : Big
    Идентификатор кодека : A_AC3
    Продолжительность : 1 ч. 55 м.
    Вид битрейта : Постоянный
    Битрейт : 448 Кбит/сек
    Каналы : 6 каналов
    Расположение каналов : Front: L C R, Side: L R, LFE
    Частота : 48, 0 КГц
    Метод сжатия : С потерями
    Размер потока : 372 Мбайт (17%)
    Заголовок : Original, AC3 5.1 ~448 kbps
    Язык : English
    Default : Нет
    Forced : Нет
    Текст #1
    Идентификатор : 4
    Формат : UTF-8
    Идентификатор кодека : S_TEXT/UTF8
    Идентификатор кодека/Информация : UTF-8 Plain Text
    Язык : Russian
    Default : Нет
    Forced : Нет
    Текст #2
    Идентификатор : 5
    Формат : UTF-8
    Идентификатор кодека : S_TEXT/UTF8
    Идентификатор кодека/Информация : UTF-8 Plain Text
    Язык : English
    Default : Нет
    Forced : Нет
    Текст #3
    Идентификатор : 6
    Формат : UTF-8
    Идентификатор кодека : S_TEXT/UTF8
    Идентификатор кодека/Информация : UTF-8 Plain Text
    Заголовок : SDH
    Язык : English
    Default : Нет
    Forced : Нет
    Меню
    00: 00: 00.000 : en: Chapter 01
    00: 10: 41.683 : en: Chapter 02
    00: 21: 07.308 : en: Chapter 03
    00: 29: 12.876 : en: Chapter 04
    00: 40: 12.744 : en: Chapter 05
    00: 50: 50.464 : en: Chapter 06
    01: 01: 02.033 : en: Chapter 07
    01: 10: 15.420 : en: Chapter 08
    01: 19: 59.086 : en: Chapter 09
    01: 29: 40.709 : en: Chapter 10
    01: 40: 10.338 : en: Chapter 11
    01: 48: 35.801 : en: Chapter 12
    01: 50: 49.977 : en: Chapter 13
    Скриншоты


    Онлайн видео Славные парни


    Размер скачиваемого торрента: 2.11 GB (2262886141 Bytes)

    Славные парни/The Nice Guys (2016) BDRip-AVC | Лицензия
    загрузка...
    Рейтинг →
     (голосов: 1, оценка 3/5, голосовать можно 1 раз )

    Другие торренты по теме:

  • Славные парни / Goodfellas (1990) BDRip-AVC | iPad торрент скачать бесплатно
  • Славные парни / Goodfellas (1990) BDRip 1080p торрент скачать бесплатно
  • Славные парни / Goodfellas (1990) BDRip-AVC от ExKinoRay скачать через торрент бесплатно
  • Славные парни / Goodfellas (1990) BDRip 720p | D скачать торрент бесплатно
  • Славные парни / Goodfellas (1990) BDRip 1080p | 25th Anniversary Edition скачать торрент бесплатно
  • Славные парни / Goodfellas (1990) BDRip от MediaClub | КПК скачать торрент бесплатно
  • Славные парни / Goodfellas (1990) BDRip 1080p от NNNB | D,P2 | Remastered from a 4k скачать торрент бесплатно
  • Славные парни (2016) скачать торрент бесплатно


    • Комментарии (0):

      Информация

      Информация

        Посетители, находящиеся в группе Гости, не могут оставлять комментарии в данной новости.

        ↓ Меню



        ↓ Опрос

        А Вы добавили сайт в закладки?
        Да
        Не


        Top 10 за неделю (Фильмы)