.
Авторизация | Регистрация
Хочешь лучшие торренты? Добавь свой email!
Добавить
» » Алиса в Зазеркалье / Alice Through the Looking Glass (2016) BDRip 720p от ExKinoRay | Лицензия торрент скачать бесплатно




    Алиса в Зазеркалье / Alice Through the Looking Glass (2016) BDRip 720p от ExKinoRay | Лицензия торрент скачать бесплатно

    Опубликовал: Админ | Дата: 6-10-2016, 05:00 | Просмотров: 83



    Детально о кино
    Русское название: Алиса в Зазеркалье
    Русское название в мировом прокате: Alice Through the Looking Glass
    Создали в: 2016
    Категория жанра: Фэнтези, приключения, семейный, эранизация
    Главный режиссер: Джеймс Бобин

    Актеры
    Миа Васиковска, Джонни Депп, Хелена Бонем Картер, Энн Хэтэуэй, Саша Барон Коэн, Рис Иванс, Мэтт Лукас, Линдси Дункан, Лео Билл, Джеральдин Джеймс
    О фильме:
    Победив огнедышащего дракона Бармаглота и свергнув с трона Красную Королеву, Алиса возвращается в свой родной мир. Три года она плавает по китайским морям в звании капитана корабля Чудо, перевозя торговые грузы и занимаясь делами компании своего покойного отца, Чарльза Кингсли. Но вскоре ей предстоит вновь с головой окунуться в водоворот захватывающих приключений и ярких красок дневного свечения, опередив само время, чтобы спасти своего лучшего друга, Сумасшедшего Шляпника.

    Снималось в: США, Великобритания,
    Киностудия: Legend3D, Roth Films, Team Todd, Tim Burton Productions, Walt Disney Pictures
    Время просмотра: 01: 52: 57
    Перевод текста: Дублированный | Лицензия | Blu-Ray CEE
    Файл
    Кодек для видео: MPEG-4
    Качество фильма: BDRip 720p
    Информация о видео: 1280x694, 7198 Кbit/s, 23.976 fps
    Информация о звуке:
    Информация о звуке #01: 48 kHz, AC3, 5.1, 640 Kbps | Дублированный | Лицензия |
    Информация о звуке #03: 48 kHz, DTS, 5.1, 1510 kbps | Оригинал |
    Субтитры: Русские (full, forced), английские
    MI

    x264 info: frame I: 1923 Avg QP: 14.91 size: 224644
    x264 info: frame P: 42075 Avg QP: 17.66 size: 68538
    x264 info: frame B: 118510 Avg QP: 19.23 size: 23482
    ----------------------------------------
    Общее
    Уникальный идентификатор : 208648254694054675690583967569015380444 (0x9CF8313121BC474F9E4AE85488EA99DC)
    Полное имя : E: ЗагрузкиAlice.Through.the.Looking.Glass.2016.BDRip.720p.ExKinoRay.mkv
    Формат : Matroska
    Версия формата : Version 4/Version 2
    Размер файла : 7, 38 Гбайт
    Продолжительность : 1 ч. 52 м.
    Общий поток : 9350 Кбит/сек
    Название фильма : Алиса в Зазеркалье.2016.Rip by: ollan
    Дата кодирования : UTC 2016-10-05 14: 03: 10
    Программа кодирования : mkvmerge v8.3.0 (;Over the Horizon;) 64bit
    Библиотека кодирования : libebml v1.3.1 + libmatroska v1.4.2
    Attachements : Cover - Alice.Through.The.Looking.Glass..png
    Видео
    Идентификатор : 1
    Формат : AVC
    Формат/Информация : Advanced Video Codec
    Профиль формата : High@L4.1
    Параметр CABAC формата : Да
    Параметр ReFrames формата : 9 кадров
    Идентификатор кодека : V_MPEG4/ISO/AVC
    Продолжительность : 1 ч. 52 м.
    Битрейт : 7198 Кбит/сек
    Ширина : 1280 пикселей
    Высота : 694 пикселя
    Соотношение сторон : 1, 85: 1
    Режим частоты кадров : Постоянный
    Частота кадров : 23, 976 (24000/1001) кадра/сек
    Цветовое пространство : YUV
    Субдискретизация насыщенности : 4: 2: 0
    Битовая глубина : 8 бит
    Тип развёртки : Прогрессивная
    Бит/(Пиксели*Кадры) : 0.338
    Размер потока : 5, 54 Гбайт (75%)
    Библиотека кодирования : x264 core 146 r2538 121396c
    Настройки программы : cabac=1/ref=9/deblock=1: -3: -3/analyse=0x3: 0x133/me=umh/subme=11/psy=1/psy_rd=1.00: 0.10/mixed_ref=1/me_range=48/chroma_me=1/trellis=2/8x8dct=1/cqm=0/deadzone=21, 11/fast_pskip=0/chroma_qp_offset=-3/threads=12/lookahead_threads=3/sliced_threads=0/nr=0/decimate=0/interlaced=0/bluray_compat=0/constrained_intra=0/bframes=10/b_pyramid=2/b_adapt=2/b_bias=0/direct=3/weightb=1/open_gop=0/weightp=2/keyint=240/keyint_min=23/scenecut=40/intra_refresh=0/rc_lookahead=40/rc=2pass/mbtree=0/bitrate=7198/ratetol=1.0/qcomp=0.60/qpmin=0/qpmax=69/qpstep=4/cplxblur=20.0/qblur=0.5/vbv_maxrate=50000/vbv_bufsize=62500/nal_hrd=none/filler=0/ip_ratio=1.40/pb_ratio=1.30/aq=1: 1.00
    Язык : English
    Default : Да
    Forced : Нет
    Аудио #1
    Идентификатор : 2
    Формат : AC-3
    Формат/Информация : Audio Coding 3
    Расширение режима : CM (complete main)
    Параметр Endianness формата : Big
    Идентификатор кодека : A_AC3
    Продолжительность : 1 ч. 52 м.
    Вид битрейта : Постоянный
    Битрейт : 640 Кбит/сек
    Каналы : 6 каналов
    Расположение каналов : Front: L C R, Side: L R, LFE
    Частота : 48, 0 КГц
    Частота кадров : 31, 250 кадров/сек (1536 spf)
    Метод сжатия : С потерями
    Размер потока : 517 Мбайт (7%)
    Заголовок : Dub License
    Язык : Russian
    Default : Да
    Forced : Нет
    Аудио #2
    Идентификатор : 3
    Формат : DTS
    Формат/Информация : Digital Theater Systems
    Режим : 16
    Параметр Endianness формата : Big
    Идентификатор кодека : A_DTS
    Продолжительность : 1 ч. 52 м.
    Вид битрейта : Постоянный
    Битрейт : 1509 Кбит/сек
    Каналы : 6 каналов
    Расположение каналов : Front: L C R, Side: L R, LFE
    Частота : 48, 0 КГц
    Частота кадров : 93, 750 кадра/сек (512 spf)
    Битовая глубина : 24 бит
    Метод сжатия : С потерями
    Размер потока : 1, 19 Гбайт (16%)
    Язык : English
    Default : Нет
    Forced : Нет
    Текст #1
    Идентификатор : 4
    Формат : UTF-8
    Идентификатор кодека : S_TEXT/UTF8
    Идентификатор кодека/Информация : UTF-8 Plain Text
    Заголовок : Forced
    Язык : Russian
    Default : Да
    Forced : Нет
    Текст #2
    Идентификатор : 5
    Формат : UTF-8
    Идентификатор кодека : S_TEXT/UTF8
    Идентификатор кодека/Информация : UTF-8 Plain Text
    Заголовок : Full
    Язык : Russian
    Default : Нет
    Forced : Нет
    Текст #3
    Идентификатор : 6
    Формат : UTF-8
    Идентификатор кодека : S_TEXT/UTF8
    Идентификатор кодека/Информация : UTF-8 Plain Text
    Заголовок : Forced
    Язык : English
    Default : Нет
    Forced : Нет
    Текст #4
    Идентификатор : 7
    Формат : UTF-8
    Идентификатор кодека : S_TEXT/UTF8
    Идентификатор кодека/Информация : UTF-8 Plain Text
    Заголовок : Full
    Язык : English
    Default : Нет
    Forced : Нет
    Меню
    00: 00: 00.000 : en: Navigating The Wonder
    00: 04: 32.000 : en: Return Home
    00: 07: 24.000 : en: Canceled Plans
    00: 12: 07.000 : en: Through The Looking Glass
    00: 16: 39.000 : en: Old Friends
    00: 22: 47.000 : en: Chronosphere
    00: 24: 59.000 : en: Time;s Castle
    00: 30: 17.000 : en: The Grand Clock
    00: 35: 30.000 : en: Arrival Of The Red Queen
    00: 41: 32.000 : en: Ocean Of Time
    00: 45: 20.000 : en: Coronation
    00: 51: 35.000 : en: Warning The Hatter
    00: 54: 11.000 : en: Tea Party With Time
    00: 57: 40.000 : en: Tart Trouble
    01: 04: 18.000 : en: The Stroke Of Six
    01: 09: 18.000 : en: Escape From The Asylum
    01: 12: 45.000 : en: Horunvendush Day
    01: 18: 07.000 : en: Red Queen;s Lair
    01: 23: 20.000 : en: Changing The Past
    01: 27: 34.000 : en: Running Out Of Time
    01: 32: 16.000 : en: Family Reunion
    01: 36: 40.000 : en: Goodbyes
    01: 40: 13.000 : en: Setting Sail
    01: 43: 14.000 : en: End Credits


    Релиз подготовил: Rip by:

    Онлайн видео Алиса в Зазеркалье


    Размер скачиваемого торрента: 7.38 GB (7922131225 Bytes)

    Алиса в Зазеркалье/Alice Through the Looking Glass (2016) BDRip 720p от ExKinoRay | Лицензия
    загрузка...
    Рейтинг →
     (голосов: 1, оценка 5/5, голосовать можно 1 раз )

    Другие торренты по теме:



      Комментарии (0):

      Информация

      Информация

        Посетители, находящиеся в группе Гости, не могут оставлять комментарии в данной новости.

        ↓ Меню



        ↓ Опрос

        А Вы добавили сайт в закладки?
        Да
        Не


        Top 10 за месяц (Фильмы)