.
Авторизация | Регистрация
» » Голодные игры: Сойка-пересмешница. Часть II / The Hunger Games: Mockingjay - Part 2 (2015) BDRemux 1080р | iTunes скачать торрент бесплатно




    Голодные игры: Сойка-пересмешница. Часть II / The Hunger Games: Mockingjay - Part 2 (2015) BDRemux 1080р | iTunes скачать торрент бесплатно

    Опубликовал: Админ | Дата: 6-10-2016, 05:00 | Просмотров: 82


    Да не угаснет пламя

    Создали в: 2015
    Создали в: США, Германия/Lionsgate, Color Force, Studio Babelsberg
    Категория жанра: Фантастика, триллер, военный
    Главный режиссер: Френсис Лоуренс
    Продюсеры: Нина Джейкобсон, Джон Килик, Джон Бернард
    Актеры: Дженнифер Лоуренс, Джош Хатчерсон, Лиам Хемсворт, Вуди Харрельсон, Дональд Сазерленд, Филип Сеймур Хоффман, Джулианна Мур, Уиллоу Шилдс, Сэм Клафлин, Элизабет Бэнкс
    Описание фильма:
    Китнисс Эвердин и своенравный Пит Мелларк пытаются выиграть гражданскую войну между самодержавным Капитолием и истерзанными войной районами Панема…
    Перевод текста: Дублированный iTunes
    Субтитры: Русские, английские
    Дата мировой премьеры: 4 ноября 2015
    Дата российской премьеры: 19 ноября 2015, WDSSPR

    Время просмотра: 02: 16: 57
    Качество фильма видео: BDRemux 1080p
    Информация о видео: MPEG-4 AVC/H.264, 1920x1080, ~21000 Кбит/сек
    Информация о звуке 1: AC3 5.1, 384 Кбит/сек Русский - дублированный
    Информация о звуке 2: TrueHD 7.1, 4287 Кбит/сек Английский - оригинал
    MediaInfo:
    Общее
    Уникальный идентификатор : 242826688848981196451188610399767359236 (0xB6AEB8193C53B8858DA4937193BFEF04)
    Полное имя : F: ВидеоThe Hunger Games. Mockingjay - Part 2 (2015) BDRemux 1080p.mkv
    Формат : Matroska
    Версия формата : Version 4/Version 2
    Размер файла : 24, 6 Гбайт
    Продолжительность : 2 ч. 16 м.
    Режим общего битрейта : Переменный
    Общий поток : 25, 7 Мбит/сек
    Дата кодирования : UTC 2016-10-03 17: 22: 37
    Программа кодирования : mkvmerge v9.4.2 (;So High;) 64bit
    Библиотека кодирования : libebml v1.3.4 + libmatroska v1.4.5
    Видео
    Идентификатор : 1
    Формат : AVC
    Формат/Информация : Advanced Video Codec
    Профиль формата : High@L4.1
    Параметр CABAC формата : Да
    Параметр ReFrames формата : 4 кадра
    Идентификатор кодека : V_MPEG4/ISO/AVC
    Продолжительность : 2 ч. 16 м.
    Вид битрейта : Переменный
    Битрейт : 20, 9 Мбит/сек
    Максимальный битрейт : 36, 5 Мбит/сек
    Ширина : 1920 пикселей
    Высота : 1080 пикселей
    Соотношение сторон : 16: 9
    Режим частоты кадров : Постоянный
    Частота кадров : 23, 976 (24000/1001) кадра/сек
    Цветовое пространство : YUV
    Субдискретизация насыщенности : 4: 2: 0
    Битовая глубина : 8 бит
    Тип развёртки : Прогрессивная
    Бит/(Пиксели*Кадры) : 0.421
    Размер потока : 20, 0 Гбайт (82%)
    Default : Да
    Forced : Нет
    Аудио #1
    Идентификатор : 2
    Формат : AC-3
    Формат/Информация : Audio Coding 3
    Расширение режима : CM (complete main)
    Параметр Endianness формата : Big
    Идентификатор кодека : A_AC3
    Продолжительность : 2 ч. 16 м.
    Вид битрейта : Постоянный
    Битрейт : 384 Кбит/сек
    Каналы : 6 каналов
    Расположение каналов : Front: L C R, Side: L R, LFE
    Частота : 48, 0 КГц
    Частота кадров : 31, 250 кадров/сек (1536 spf)
    Метод сжатия : С потерями
    Размер потока : 376 Мбайт (1%)
    Заголовок : Dub
    Язык : Russian
    Default : Да
    Forced : Нет
    Аудио #2
    Идентификатор : 3
    Формат : Atmos/TrueHD
    Идентификатор кодека : A_TRUEHD
    Продолжительность : 2 ч. 16 м.
    Вид битрейта : Переменный
    Битрейт : 4287 Кбит/сек
    Максимальный битрейт : 8142 Кбит/сек
    Каналы : Object Based/8 каналов
    Расположение каналов : Object Based/Front: L C R, Side: L R, Back: L R, LFE
    Частота : /48, 0 КГц
    Частота кадров : 1200, 000 кадров/сек (40 spf)
    Метод сжатия : Без потерь
    Размер потока : 4, 10 Гбайт (17%)
    Заголовок : Original
    Язык : English
    Default : Нет
    Forced : Нет
    Текст #1
    Идентификатор : 4
    Формат : UTF-8
    Идентификатор кодека : S_TEXT/UTF8
    Идентификатор кодека/Информация : UTF-8 Plain Text
    Продолжительность : 2 ч. 4 м.
    Битрейт : 81 бит/сек
    Count of elements : 1350
    Размер потока : 74, 0 Кбайт (0%)
    Язык : Russian
    Default : Нет
    Forced : Нет
    Текст #2
    Идентификатор : 5
    Формат : UTF-8
    Идентификатор кодека : S_TEXT/UTF8
    Идентификатор кодека/Информация : UTF-8 Plain Text
    Продолжительность : 2 ч. 4 м.
    Битрейт : 47 бит/сек
    Count of elements : 1350
    Размер потока : 43, 0 Кбайт (0%)
    Язык : English
    Default : Нет
    Forced : Нет
    Текст #3
    Идентификатор : 6
    Формат : UTF-8
    Идентификатор кодека : S_TEXT/UTF8
    Идентификатор кодека/Информация : UTF-8 Plain Text
    Продолжительность : 2 ч. 4 м.
    Битрейт : 50 бит/сек
    Count of elements : 1485
    Размер потока : 46, 5 Кбайт (0%)
    Заголовок : SDH
    Язык : English
    Default : Нет
    Forced : Нет
    Меню
    00: 00: 00.000 : en: 00: 00: 00.000
    00: 07: 39.042 : en: 00: 07: 39.042
    00: 16: 49.217 : en: 00: 16: 49.217
    00: 24: 46.985 : en: 00: 24: 46.985
    00: 31: 59.960 : en: 00: 31: 59.960
    00: 37: 11.688 : en: 00: 37: 11.688
    00: 46: 42.717 : en: 00: 46: 42.717
    00: 55: 00.881 : en: 00: 55: 00.881
    01: 02: 46.429 : en: 01: 02: 46.429
    01: 09: 27.497 : en: 01: 09: 27.497
    01: 18: 42.968 : en: 01: 18: 42.968
    01: 29: 51.136 : en: 01: 29: 51.136
    01: 37: 08.239 : en: 01: 37: 08.239
    01: 49: 01.785 : en: 01: 49: 01.785
    01: 56: 55.759 : en: 01: 56: 55.759
    02: 03: 33.239 : en: 02: 03: 33.239
    Скриншоты:

    Залил: Саша 1992

    Онлайн видео Голодные игры: Сойка-пересмешница. Часть II


    Размер скачиваемого торрента: 24.56 GB (26374131386 Bytes)

    Голодные игры: Сойка-пересмешница. Часть II/The Hunger Games: Mockingjay - Part 2 (2015) BDRemux 1080р | iTunes
    загрузка...
    Рейтинг →
     (голосов: 1, оценка 4/5, голосовать можно 1 раз )

    Другие торренты по теме:

  • Голодные игры / The Hunger Games (2012) HDRip торрент скачать бесплатно
  • Сьюзен Коллинз / Suzanne Collins - Голодные игры (2010-2011) fb2 торрент скачать бесплатно
  • Голодные игры: И вспыхнет пламя / The Hunger Games: Catching Fire (2013) HD 1080p | Трейлер-тизер торрент скачать бесплатно
  • Голодные игры (2013) SATRip торрент скачать бесплатно
  • OST - Голодные игры / The Hunger Games (2012) MP3 скачать через торрент бесплатно
  • Пусть говорят - Голодные игры (2013) HDTVRip от MediaClub скачать через торрент бесплатно
  • OST - Голодные игры: И вспыхнет пламя / Hunger Games: Catching Fire (2013) MP3 торрент скачать бесплатно
  • Голодные игры: И вспыхнет пламя / The Hunger Games: Catching Fire (2013) DCPrip | Трейлер торрент скачать бесплатно


    • Комментарии (0):

      Информация

      Информация

        Посетители, находящиеся в группе Гости, не могут оставлять комментарии в данной новости.

        ↓ Меню



        ↓ Опрос

        А Вы добавили сайт в закладки?
        Да
        Не


        Top 10 за неделю (Фильмы)