.
Авторизация | Регистрация
» » Мистер Хутен и леди / Hooten the Lady (2016) HDTV 720р | NEON Studio скачать торрент бесплатно




    Мистер Хутен и леди / Hooten the Lady (2016) HDTV 720р | NEON Studio скачать торрент бесплатно

    Опубликовал: Админ | Дата: 7-10-2016, 05:00 | Просмотров: 70



    Русское название: Мистер Хутен и леди
    Русское название в мировом прокате: Hooten the Lady
    Создали в: 2016
    Категория жанра: драма, приключения, боевик
    Главный режиссер: Джастин Молотников, Дэниэл О’Хара, Колин Тиг

    Актеры

    Майкл Лэндис, Офелия Ловибонд, Шон Паркес, Джессика Хайнс, Джонатан Бэйли, Джейн Сеймур, Стевель Марк, Валери Лиллей, Кирстон Вэрэйнг др.
    Описание сериала:
    Сюжет сериала расскажет про приключения авантюриста Хутена и Леди Александры Линдо-Паркер, сотрудницы Британского музея, которые объединяются для поиска самых различных сокровищ прошлого - затерянного золотого города, пропавшего свитка Будды и могилы Александра Македонского.
    Снималось в: Великобритания
    Время просмотра: ~00: 45: 00
    Перевод текста: Любительский (двухголосый) NEON Studio
    Субтитры: Отсутствуют

    Файл
    Тип видео: MKV
    Качество фильма: HDTV (720p)
    Информация о видео: MPEG-4 AVC, ~ 3500 Кбит/с, 1280x720
    Информация о звуке: 48 kHz, AC3 Dolby Digital, 2/0 (L, R) ch, ~192 kbps
    Релиз группа:

    MediaInfo
    Формат : Matroska
    Версия формата : Version 1
    Размер файла : 1, 17 Гбайт
    Продолжительность : 45 м.
    Общий поток : 3677 Кбит/сек
    Дата кодирования : UTC 2016-09-17 05: 22: 16
    Программа кодирования : AVSMatroskaFile
    Библиотека кодирования : libebml v0.7.7 + libmatroska v0.8.1
    Видео
    Идентификатор : 1
    Формат : AVC
    Формат/Информация : Advanced Video Codec
    Профиль формата : Main@L5.1
    Параметр CABAC формата : Да
    Параметр ReFrames формата : 1 кадр
    Идентификатор кодека : V_MPEG4/ISO/AVC
    Продолжительность : 45 м.
    Битрейт : 3411 Кбит/сек
    Ширина : 1280 пикселей
    Высота : 720 пикселей
    Соотношение сторон : 16: 9
    Режим частоты кадров : Постоянный
    Частота кадров : 25, 000 кадров/сек
    Цветовое пространство : YUV
    Субдискретизация насыщенности : 4: 2: 0
    Битовая глубина : 8 бит
    Тип развёртки : Прогрессивная
    Бит/(Пиксели*Кадры) : 0.148
    Размер потока : 1, 09 Гбайт (93%)
    Default : Да
    Forced : Нет
    Аудио
    Идентификатор : 2
    Формат : MPEG Audio
    Версия формата : Version 1
    Профиль формата : Layer 3
    Идентификатор кодека : A_MPEG/L3
    Идентификатор кодека/Подсказка : MP3
    Продолжительность : 45 м.
    Вид битрейта : Постоянный
    Битрейт : 192 Кбит/сек
    Каналы : 2 канала
    Частота : 48, 0 КГц
    Метод сжатия : С потерями
    Размер потока : 62, 8 Мбайт (5%)
    Библиотека кодирования : LAMELAME_MAJOR_VERSI
    Default : Да
    Forced : Нет
    Внимание! Раздача ведётся путём добавления новых серий
    Внимание! Раздача ведётся путём добавления новых серий; при каждом добавлении создаётся новый торрент. Чтобы начать докачку новой серии, пользователям необходимо сделать следующее:
    (1) остановить скачивание,
    (2) удалить старый торрент у себя из клиента (старые серии удалять не надо),
    (3) скачать новый торрент и запустить его у себя в клиенте вместо старого, при этом указать клиенту путь в старую папку куда и должно происходить скачивание новых серий.
    Ваш клиент при этом должен произвести хеширование (проверку) старой папки (если не производит сам - помогите ему сделать это), и будет докачивать только те серии которых у вас ещё нет. Старые серии при этом не удаляются, а продолжают раздаваться!
    Eсли вы уже удалили старые серии, то предотвратить повторную закачку старых серий можно, отжав галочку в соответсвующих местах при запуске нового торрента. По возможности, желательно не удалять старые серии как можно дольше чтобы релизёр не столько продолжал раздавать старые серии, а смог сконцентрироваться на новых.
    Скриншоты

    Залил: SPARTA111

    Онлайн видео Мистер Хутен и леди


    Размер скачиваемого торрента: 2.13 GB (2290673156 Bytes)

    Мистер Хутен и леди/Hooten the Lady (2016) HDTV 720р | NEON Studio
    загрузка...
    Рейтинг →
     (голосов: 1, оценка 4/5, голосовать можно 1 раз )

    Другие торренты по теме:

  • Мистер Хутен и леди / Hooten and the Lady (2016) HDTVRip | Jaskier скачать торрент бесплатно
  • Мистер Хутен и леди / Hooten and the Lady (2016) HDTVRip 720p | Jaskier скачать торрент бесплатно
  • Мистер Хутен и леди / Hooten the Lady (2016) HDTVRip | NEON Studio скачать торрент бесплатно


    • Комментарии (0):

      Информация

      Информация

        Посетители, находящиеся в группе Гости, не могут оставлять комментарии в данной новости.

        ↓ Меню



        ↓ Опрос

        А Вы добавили сайт в закладки?
        Да
        Не


        Top 10 за неделю (Фильмы)