.
Авторизация | Регистрация
» » Охота на дикарей / Hunt for the Wilderpeople (2016) BDRip 1080p от ExKinoRay | L скачать торрент бесплатно




    Охота на дикарей / Hunt for the Wilderpeople (2016) BDRip 1080p от ExKinoRay | L скачать торрент бесплатно

    Опубликовал: Админ | Дата: 7-10-2016, 05:01 | Просмотров: 88



    Детально о кино
    Русское название: Охота на дикарей
    Русское название в мировом прокате: Hunt for the Wilderpeople
    Создали в: 2016
    Категория жанра: Приключения, драма, комедия
    Главный режиссер: Тайка Вайтити

    Актеры
    Сэм Нилл, Джулиан Деннисон, Рима Те Вьята, Рэйчел Хаус, Tioreore Ngatai-Melbourne, Оскар Кайтли, Стэн Уокер, Майк Миноуг, Коэн Холлоуэй, Риз Дэрби
    О фильме:
    Рикки Бэйкер — упитанный городской хулиган. Сотрудница социальной службы Пола отвозит подростка в сельскую местность, где живёт единственная готовая принять его семья — Белла и её нелюдимый муж Гек. Когда Белла умирает и социальная защита собирается забрать Рикки, тот убегает в леса. Гек отправляется за ним. Сумасбродная Пола убеждена, что странный Гек слетел с катушек из-за смерти жены и похитил подростка. Она развязывает общенациональную охоту на мальчика и его совратителя.

    Снималось в: Новая Зеландия
    Киностудия: Curious Film, Defender Films, Piki Films
    Время просмотра: 01: 40: 59
    Перевод текста: Любительский многоголосый (закадровый) | GreenРай
    Файл
    Кодек для видео: MPEG-4
    Качество фильма: BDRip 1080p
    Информация о видео: 1920x800, 13.5 Mbit/s, 24 fps
    Информация о звуке:
    Информация о звуке #01: 48 kHz, AC3, 5.1, 448 Kbps | Любительский многоголосый (закадровый) | GreenРай |
    Информация о звуке #02: 48 kHz, DTS, 5.1, 1510 kbps | Оригинал |
    Субтитры: Русские, английские
    MI
    General
    Unique ID : 226604712393091471557955397488195293818 (0xAA7A7AE8BB7010B295011E164F22527A)
    Complete name : H: VideoHunt.for.the.Wilderpeople.2016.-селезень-.BDRip.1080p.ExKinoRay.mkv
    Format : Matroska
    Format version : Version 4/Version 2
    File size : 10.9 GiB
    Duration : 1 h 40 min
    Overall bit rate : 15.4 Mb/s
    Movie name : ***селезень***
    Encoded date : UTC 2016-10-06 10: 03: 08
    Writing application : mkvmerge v8.3.0 (;Over the Horizon;) 64bit
    Writing library : libebml v1.3.1 + libmatroska v1.4.2
    Cover : Yes
    Attachments : cover.jpg
    Video
    ID : 1
    Format : AVC
    Format/Info : Advanced Video Codec
    Format profile : High@L4.1
    Format settings, CABAC : Yes
    Format settings, ReFrames : 5 frames
    Codec ID : V_MPEG4/ISO/AVC
    Duration : 1 h 40 min
    Bit rate : 13.5 Mb/s
    Width : 1 920 pixels
    Height : 800 pixels
    Display aspect ratio : 2.40: 1
    Frame rate mode : Constant
    Frame rate : 24.000 FPS
    Color space : YUV
    Chroma subsampling : 4: 2: 0
    Bit depth : 8 bits
    Scan type : Progressive
    Bits/(Pixel*Frame) : 0.365
    Stream size : 9.48 GiB (87%)
    Title : ***селезень***
    Writing library : x264 core 142 r2431+42 c69a006 tMod 8-bit@all X86_64
    Encoding settings : cabac=1/ref=5/deblock=1: -3: -3/analyse=0x3: 0x113/me=umh/subme=11/psy=1/fade_compensate=0.00/psy_rd=1.05: 1.05/mixed_ref=1/me_range=48/chroma_me=1/trellis=2/8x8dct=1/cqm=0/deadzone=21, 11/fast_pskip=0/chroma_qp_offset=-4/threads=16/lookahead_threads=4/sliced_threads=0/nr=0/decimate=0/interlaced=0/bluray_compat=0/constrained_intra=0/fgo=0/bframes=10/b_pyramid=2/b_adapt=2/b_bias=0/direct=3/weightb=1/open_gop=0/weightp=2/keyint=240/keyint_min=24/scenecut=40/intra_refresh=0/rc_lookahead=150/rc=2pass/mbtree=0/bitrate=13470/ratetol=1.0/qcomp=0.70/qpmin=0: 0: 0/qpmax=69: 69: 69/qpstep=4/cplxblur=20.0/qblur=0.5/vbv_maxrate=62500/vbv_bufsize=78125/nal_hrd=none/filler=0/ip_ratio=1.30/pb_ratio=1.40/aq=2: 0.80/aq-sensitivity=10.00/aq-factor=1.00: 1.00: 1.00/aq2=0/aq3=0
    Language : English
    Default : Yes
    Forced : No
    Color range : Limited
    Color primaries : BT.709
    Transfer characteristics : BT.709
    Matrix coefficients : BT.709
    Audio #1
    ID : 2
    Format : AC-3
    Format/Info : Audio Coding 3
    Mode extension : CM (complete main)
    Format settings, Endianness : Big
    Codec ID : A_AC3
    Duration : 1 h 40 min
    Bit rate mode : Constant
    Bit rate : 448 kb/s
    Channel(s) : 6 channels
    Channel positions : Front: L C R, Side: L R, LFE
    Sampling rate : 48.0 kHz
    Frame rate : 31.250 FPS (1536 spf)
    Compression mode : Lossy
    Stream size : 324 MiB (3%)
    Title : MVO
    Language : Russian
    Default : Yes
    Forced : No
    Audio #2
    ID : 3
    Format : DTS
    Format/Info : Digital Theater Systems
    Mode : 16
    Format settings, Endianness : Big
    Codec ID : A_DTS
    Duration : 1 h 40 min
    Bit rate mode : Constant
    Bit rate : 1 509 kb/s
    Channel(s) : 6 channels
    Channel positions : Front: L C R, Side: L R, LFE
    Sampling rate : 48.0 kHz
    Frame rate : 93.750 FPS (512 spf)
    Bit depth : 24 bits
    Compression mode : Lossy
    Stream size : 1.06 GiB (10%)
    Title : Original
    Language : English
    Default : No
    Forced : No
    Text #1
    ID : 4
    Format : UTF-8
    Codec ID : S_TEXT/UTF8
    Codec ID/Info : UTF-8 Plain Text
    Duration : 1 h 35 min
    Bit rate : 122 b/s
    Count of elements : 1506
    Stream size : 85.8 KiB (0%)
    Title : Full
    Language : Russian
    Default : No
    Forced : No
    Text #2
    ID : 5
    Format : UTF-8
    Codec ID : S_TEXT/UTF8
    Codec ID/Info : UTF-8 Plain Text
    Duration : 1 h 37 min
    Bit rate : 61 b/s
    Count of elements : 1302
    Stream size : 43.7 KiB (0%)
    Title : Full
    Language : English
    Default : No
    Forced : No
    Menu
    00: 00: 00.000 : en: 00: 00: 00.000
    00: 06: 04.792 : en: 00: 06: 04.792
    00: 16: 58.917 : en: 00: 16: 58.917
    00: 25: 29.375 : en: 00: 25: 29.375
    00: 36: 20.042 : en: 00: 36: 20.042
    00: 43: 50.958 : en: 00: 43: 50.958
    00: 51: 02.833 : en: 00: 51: 02.833
    00: 59: 52.167 : en: 00: 59: 52.167
    01: 08: 52.208 : en: 01: 08: 52.208
    01: 18: 39.583 : en: 01: 18: 39.583
    01: 29: 48.417 : en: 01: 29: 48.417
    01: 36: 13.625 : en: 01: 36: 13.625


    Релиз подготовил: Автор релиза:

    Онлайн видео Охота на дикарей


    Размер скачиваемого торрента: 10.86 GB (11665941313 Bytes)

    Охота на дикарей/Hunt for the Wilderpeople (2016) BDRip 1080p от ExKinoRay | L
    загрузка...
    Рейтинг →
     (голосов: 1, оценка 4/5, голосовать можно 1 раз )

    Другие торренты по теме:



      Комментарии (0):

      Информация

      Информация

        Посетители, находящиеся в группе Гости, не могут оставлять комментарии в данной новости.

        ↓ Меню



        ↓ Опрос

        А Вы добавили сайт в закладки?
        Да
        Не


        Top 10 за неделю (Фильмы)