.
Авторизация | Регистрация
Хочешь лучшие торренты? Добавь свой email!
Добавить
» » Состояние исступления / State of Grace (1990) BDRip 720p | D, P2, А торрент скачать бесплатно




    Состояние исступления / State of Grace (1990) BDRip 720p | D, P2, А торрент скачать бесплатно

    Опубликовал: Админ | Дата: 8-10-2016, 05:01 | Просмотров: 48



    Детально о кино
    Русское название: Состояние исступления
    Русское название в мировом прокате: State of Grace
    Создали в: 1990
    Категория жанра: боевик, триллер, драма, мелодрама, криминал
    Главный режиссер: Фил Джоану

    Актеры
    Шон Пенн, Гари Олдман, Эд Харрис, Робин Райт, Джон Туртурро, Бёрджесс Мередит, Р.Д. Колл, Джо Витерелли, Джон Си Райли, Дирдри О’Коннелл

    Сюжет фильма

    Терри вырос в Адской кухне, небольшом ирландском квартале в западной части Манхэттена. Вернувшись в Нью-Йорк после десятилетнего отсутствия, он встречает своего лучшего друга детства Джеки, чей брат Фрэнки стал боссом ирландской мафии, а сестра Кэтлин, первая любовь Терри, превратилась в очаровательную женщину.
    Не вполне доверяя Терри, Фрэнки все-таки поручает ему вместе с Джеки выколачивать дань с местных торговцев. Никто еще не знает, что Терри — полицейский, работающий под прикрытием. И Терри мучительно разрывается между дружбой с Джеки, любовью к Кэтлин и необходимостью выполнить свой долг, упрятав Фрэнки за решетку.

    Снималось в: Великобритания, США
    Киностудия: Cinehaus, Orion Pictures, The Rank Organisation Film Productions Ltd.
    Время просмотра: 02: 14: 07
    Перевод текста: Профессиональный (дублированный) Варус-Видео + Профессиональный (двухголосый, закадровый) НТВ+ + Профессиональный (двухголосый, закадровый) ОРТ + Авторский (одноголосый, закадровый) Д.Есарев + Авторский (одноголосый, закадровый) А.Гаврилов + Авторский (одноголосый, закадровый) С.Королёв + Авторский (одноголосый, закадровый) М.Иванов + Авторский (одноголосый, закадровый) Д.Штамп
    Файл
    Тип видео: Matroska
    Информация о видео: 1280x690 at 23.976 fps, x264@L4.1, ~12000 kbps avg
    Информация о звуке#1: Russian: 48 kHz, AC3, 2/0 (L, R) ch, ~192 kbps |Дубляж, Варус-Видео|
    Информация о звуке#2: Russian: 48 kHz, AC3, 2/0 (L, R) ch, ~192 kbps |Двухголосый закадровый, НТВ+|
    Информация о звуке#3: Russian: 48 kHz, AC3, 2/0 (L, R) ch, ~192 kbps |Двухголосый закадровый, ОРТ|
    Информация о звуке#4: Russian: 48 kHz, AC3, 3/2 (L, C, R, l, r) + LFE ch, ~640 kbps |Авторский, Д.Есарев|
    Информация о звуке#5: Russian: 48 kHz, AC3, 3/2 (L, C, R, l, r) + LFE ch, ~640 kbps |Авторский, А.Гаврилов|
    Информация о звуке#6: Russian: 48 kHz, AC3, 3/2 (L, C, R, l, r) + LFE ch, ~640 kbps |Авторский, С.Королёв|
    Информация о звуке#7: Russian: 48 kHz, AC3, 2/0 (L, R) ch, ~192 kbps |Авторский, М.Иванов|
    Информация о звуке#8: Russian: 48 kHz, AC3, 2/0 (L, R) ch, ~192 kbps |Авторский, Д.Штамп|
    Информация о звуке#9: English: 48 kHz, AC3, 3/2 (L, C, R, l, r) + LFE ch, ~640 kbps
    Информация о звуке#10: English: 48 kHz, AAC, 2/0 (L, R) ch, ~62 kbps |Commentary with Director Phil Joanou and Film Historian Nick Redman|
    Субтитры: Russian (Д.Штамп), English (Full, SDH)
    ***Сохранены оригинальные главы как на Blu-ray.
    ***Видеоряд - SbR, сборка - igrok2012.
    ***Перевод Д.Есарева, доступен благодаря ресурсу Переулок Переводмана. Заказ перевода и работа со звуком: mihaildns.
    ***Внимание! В дорожках Д.Есарева и Д.Штампа присутствует ненормативная лексика!
    MI
    Общее
    Уникальный идентификатор : 206921322632933934890972876806082861219 (0x9BAB98DE1BA0F6288386C1B2273118A3)
    Полное имя : State.of.Grace.1990.720p.BluRay.8xRus.Eng.x264.mkv
    Формат : Matroska
    Версия формата : Version 2
    Размер файла : 14, 6 Гбайт
    Продолжительность : 2 ч. 14 м.
    Общий поток : 15, 6 Мбит/сек
    Название фильма : State of Grace 1990 | igrok2012
    Дата кодирования : UTC 2016-10-06 16: 14: 31
    Программа кодирования : mkvmerge v8.3.0 (;Over the Horizon;) 64bit
    Библиотека кодирования : libebml v1.3.1 + libmatroska v1.4.2
    Attachment : Yes
    Видео
    Идентификатор : 1
    Формат : AVC
    Формат/Информация : Advanced Video Codec
    Профиль формата : High@L4.1
    Параметр CABAC формата : Да
    Параметр ReFrames формата : 9 кадров
    Идентификатор кодека : V_MPEG4/ISO/AVC
    Продолжительность : 2 ч. 14 м.
    Номинальный битрейт : 12, 0 Мбит/сек
    Ширина : 1280 пикселей
    Высота : 690 пикселей
    Соотношение сторон : 1, 85: 1
    Режим частоты кадров : Постоянный
    Частота кадров : 23, 976 кадра/сек
    Цветовое пространство : YUV
    Субдискретизация насыщенности : 4: 2: 0
    Битовая глубина : 8 бит
    Тип развёртки : Прогрессивная
    Бит/(Пиксели*Кадры) : 0.567
    Заголовок : Encode by SbR
    Библиотека кодирования : x264 core 148 r2705+54 9f484c1 t_mod_Custom 8-bit@all X86_64
    Настройки программы : cabac=1/ref=9/deblock=1: -3: -3/analyse=0x3: 0x133/me=umh/subme=10/psy=1/fade_compensate=0.00/psy_rd=1.00: 0.00/mixed_ref=1/me_range=24/chroma_me=1/trellis=2/8x8dct=1/cqm=0/deadzone=21, 11/fast_pskip=0/chroma_qp_offset=-2/threads=6/lookahead_threads=1/sliced_threads=0/nr=0/decimate=1/interlaced=0/bluray_compat=0/constrained_intra=0/fgo=0/bframes=8/b_pyramid=2/b_adapt=2/b_bias=0/direct=3/weightb=1/open_gop=0/weightp=2/keyint=250/keyint_min=23/scenecut=40/intra_refresh=0/rc=2pass/mbtree=0/bitrate=12000/ratetol=1.0/qcomp=0.70/qpmin=0: 0: 0/qpmax=69: 69: 69/qpstep=4/cplxblur=20.0/qblur=0.5/ip_ratio=1.40/pb_ratio=1.30/aq=1: 0.70/aq-sensitivity=10.00/aq-factor=1.00: 1.00: 1.00/aq2=1: 0.60/aq2-sensitivity=15.00/aq2-factor=1.00: 1.00: 1.00/aq3=1: 0.50: 0.50: 0.50: 0.50: 0.50: 0.50: 0.50: 0.50/aq3-sensitivity=10.00/aq3-factor=1.00: 1.00: 1.00: 1.00: 1.00: 1.00/aq3-boundary=192: 64: 24
    Язык : English
    Default : Да
    Forced : Нет
    Коэффициенты матрицы : BT.709
    Аудио #1
    Идентификатор : 2
    Формат : AC-3
    Формат/Информация : Audio Coding 3
    Расширение режима : CM (complete main)
    Параметр Endianness формата : Big
    Идентификатор кодека : A_AC3
    Продолжительность : 2 ч. 14 м.
    Вид битрейта : Постоянный
    Битрейт : 192 Кбит/сек
    Каналы : 2 канала
    Расположение каналов : Front: L R
    Частота : 48, 0 КГц
    Битовая глубина : 16 бит
    Метод сжатия : С потерями
    Размер потока : 184 Мбайт (1%)
    Заголовок : Дубляж, Варус видео
    Язык : Russian
    Default : Да
    Forced : Нет
    Аудио #2
    Идентификатор : 3
    Формат : AC-3
    Формат/Информация : Audio Coding 3
    Расширение режима : CM (complete main)
    Параметр Endianness формата : Big
    Идентификатор кодека : A_AC3
    Продолжительность : 2 ч. 14 м.
    Вид битрейта : Постоянный
    Битрейт : 192 Кбит/сек
    Каналы : 2 канала
    Расположение каналов : Front: L R
    Частота : 48, 0 КГц
    Битовая глубина : 16 бит
    Метод сжатия : С потерями
    Размер потока : 184 Мбайт (1%)
    Заголовок : Двухголосый закадровый, НТВ+
    Язык : Russian
    Default : Нет
    Forced : Нет
    Аудио #3
    Идентификатор : 4
    Формат : AC-3
    Формат/Информация : Audio Coding 3
    Расширение режима : CM (complete main)
    Параметр Endianness формата : Big
    Идентификатор кодека : A_AC3
    Продолжительность : 2 ч. 14 м.
    Вид битрейта : Постоянный
    Битрейт : 192 Кбит/сек
    Каналы : 2 канала
    Расположение каналов : Front: L R
    Частота : 48, 0 КГц
    Битовая глубина : 16 бит
    Метод сжатия : С потерями
    Размер потока : 184 Мбайт (1%)
    Заголовок : Двухголосый закадровый, ОРТ
    Язык : Russian
    Default : Нет
    Forced : Нет
    Аудио #4
    Идентификатор : 5
    Формат : AC-3
    Формат/Информация : Audio Coding 3
    Расширение режима : CM (complete main)
    Параметр Endianness формата : Big
    Идентификатор кодека : A_AC3
    Продолжительность : 2 ч. 14 м.
    Вид битрейта : Постоянный
    Битрейт : 640 Кбит/сек
    Каналы : 6 каналов
    Расположение каналов : Front: L C R, Side: L R, LFE
    Частота : 48, 0 КГц
    Битовая глубина : 16 бит
    Метод сжатия : С потерями
    Размер потока : 614 Мбайт (4%)
    Заголовок : Одноголосый закадровый, Д.Есарев
    Язык : Russian
    Default : Нет
    Forced : Нет
    Аудио #5
    Идентификатор : 6
    Формат : AC-3
    Формат/Информация : Audio Coding 3
    Расширение режима : CM (complete main)
    Параметр Endianness формата : Big
    Идентификатор кодека : A_AC3
    Продолжительность : 2 ч. 14 м.
    Вид битрейта : Постоянный
    Битрейт : 640 Кбит/сек
    Каналы : 6 каналов
    Расположение каналов : Front: L C R, Side: L R, LFE
    Частота : 48, 0 КГц
    Битовая глубина : 16 бит
    Метод сжатия : С потерями
    Размер потока : 614 Мбайт (4%)
    Заголовок : Одноголосый закадровый, А.Гаврилов
    Язык : Russian
    Default : Нет
    Forced : Нет
    Аудио #6
    Идентификатор : 7
    Формат : AC-3
    Формат/Информация : Audio Coding 3
    Расширение режима : CM (complete main)
    Параметр Endianness формата : Big
    Идентификатор кодека : A_AC3
    Продолжительность : 2 ч. 14 м.
    Вид битрейта : Постоянный
    Битрейт : 640 Кбит/сек
    Каналы : 6 каналов
    Расположение каналов : Front: L C R, Side: L R, LFE
    Частота : 48, 0 КГц
    Битовая глубина : 16 бит
    Метод сжатия : С потерями
    Размер потока : 614 Мбайт (4%)
    Заголовок : Одноголосый закадровый, С.Королёв
    Язык : Russian
    Default : Нет
    Forced : Нет
    Аудио #7
    Идентификатор : 8
    Формат : AC-3
    Формат/Информация : Audio Coding 3
    Расширение режима : CM (complete main)
    Параметр Endianness формата : Big
    Идентификатор кодека : A_AC3
    Продолжительность : 2 ч. 14 м.
    Вид битрейта : Постоянный
    Битрейт : 192 Кбит/сек
    Каналы : 2 канала
    Расположение каналов : Front: L R
    Частота : 48, 0 КГц
    Битовая глубина : 16 бит
    Метод сжатия : С потерями
    Размер потока : 184 Мбайт (1%)
    Заголовок : Одноголосый закадровый, М.Иванов
    Язык : Russian
    Default : Нет
    Forced : Нет
    Аудио #8
    Идентификатор : 9
    Формат : AC-3
    Формат/Информация : Audio Coding 3
    Расширение режима : CM (complete main)
    Параметр Endianness формата : Big
    Идентификатор кодека : A_AC3
    Продолжительность : 2 ч. 14 м.
    Вид битрейта : Постоянный
    Битрейт : 192 Кбит/сек
    Каналы : 2 канала
    Расположение каналов : Front: L R
    Частота : 48, 0 КГц
    Битовая глубина : 16 бит
    Метод сжатия : С потерями
    Размер потока : 184 Мбайт (1%)
    Заголовок : Одноголосый закадровый, Д.Штамп
    Язык : Russian
    Default : Нет
    Forced : Нет
    Аудио #9
    Идентификатор : 10
    Формат : AC-3
    Формат/Информация : Audio Coding 3
    Расширение режима : CM (complete main)
    Параметр Endianness формата : Big
    Идентификатор кодека : A_AC3
    Продолжительность : 2 ч. 14 м.
    Вид битрейта : Постоянный
    Битрейт : 640 Кбит/сек
    Каналы : 6 каналов
    Расположение каналов : Front: L C R, Side: L R, LFE
    Частота : 48, 0 КГц
    Битовая глубина : 16 бит
    Метод сжатия : С потерями
    Размер потока : 614 Мбайт (4%)
    Язык : English
    Default : Нет
    Forced : Нет
    Аудио #10
    Идентификатор : 11
    Формат : AAC
    Формат/Информация : Advanced Audio Codec
    Профиль формата : LC
    Идентификатор кодека : A_AAC
    Продолжительность : 2 ч. 14 м.
    Каналы : 2 канала
    Расположение каналов : Front: L R
    Частота : 48, 0 КГц
    Метод сжатия : С потерями
    Задержка видео : 9 мс.
    Заголовок : Commentary with Director Phil Joanou and Film Historian Nick Redman
    Язык : English
    Default : Нет
    Forced : Нет
    Текст #1
    Идентификатор : 12
    Формат : UTF-8
    Идентификатор кодека : S_TEXT/UTF8
    Идентификатор кодека/Информация : UTF-8 Plain Text
    Заголовок : Д.Штамп
    Язык : Russian
    Default : Нет
    Forced : Нет
    Текст #2
    Идентификатор : 13
    Формат : UTF-8
    Идентификатор кодека : S_TEXT/UTF8
    Идентификатор кодека/Информация : UTF-8 Plain Text
    Язык : English
    Default : Нет
    Forced : Нет
    Текст #3
    Идентификатор : 14
    Формат : UTF-8
    Идентификатор кодека : S_TEXT/UTF8
    Идентификатор кодека/Информация : UTF-8 Plain Text
    Заголовок : SDH
    Язык : English
    Default : Нет
    Forced : Нет
    Меню
    00: 00: 00.000 : en: 00: 00: 00.000
    00: 04: 58.548 : en: 00: 04: 58.548
    00: 09: 27.108 : en: 00: 09: 27.108
    00: 17: 02.479 : en: 00: 17: 02.479
    00: 23: 01.546 : en: 00: 23: 01.546
    00: 27: 26.061 : en: 00: 27: 26.061
    00: 32: 50.385 : en: 00: 32: 50.385
    00: 39: 28.365 : en: 00: 39: 28.365
    00: 44: 00.554 : en: 00: 44: 00.554
    00: 50: 24.146 : en: 00: 50: 24.146
    00: 55: 55.977 : en: 00: 55: 55.977
    01: 01: 52.708 : en: 01: 01: 52.708
    01: 06: 04.835 : en: 01: 06: 04.835
    01: 12: 28.886 : en: 01: 12: 28.886
    01: 19: 07.784 : en: 01: 19: 07.784
    01: 24: 56.883 : en: 01: 24: 56.883
    01: 29: 29.947 : en: 01: 29: 29.947
    01: 34: 22.031 : en: 01: 34: 22.031
    01: 41: 41.553 : en: 01: 41: 41.553
    01: 45: 36.079 : en: 01: 45: 36.079
    01: 51: 29.099 : en: 01: 51: 29.099
    01: 55: 26.836 : en: 01: 55: 26.836
    02: 02: 16.954 : en: 02: 02: 16.954
    02: 08: 49.721 : en: 02: 08: 49.721
    Скриншоты



    Онлайн видео Состояние исступления


    Размер скачиваемого торрента: 14.60 GB (15676489798 Bytes)

    Состояние исступления/State of Grace (1990) BDRip 720p | D, P2, А
    загрузка...
    Рейтинг →
     (голосов: 1, оценка 5/5, голосовать можно 1 раз )

    Другие торренты по теме:

  • Состояние исступления / State of Grace (1990) DVDRip | D
  • Состояние исступления / State of Grace (1990) BDRip 1080p
  • Состояние исступления / State of Grace (1990) BDRip 720p
  • Состояние исступления / State of Grace (1990) BDRip
  • Состояние исступления / State of Grace (1990) BDRip от HQ-ViDEO


    • Комментарии (0):

      Информация

      Информация

        Посетители, находящиеся в группе Гости, не могут оставлять комментарии в данной новости.

        ↓ Меню



        ↓ Опрос

        А Вы добавили сайт в закладки?
        Да
        Не


        Top 10 за месяц (Фильмы)