.
Авторизация | Регистрация
» » И гаснет свет... / Lights Out (2016) WEB-DL 720p от ExKinoRay | iTunes скачать торрент бесплатно




    И гаснет свет... / Lights Out (2016) WEB-DL 720p от ExKinoRay | iTunes скачать торрент бесплатно

    Опубликовал: Админ | Дата: 12-10-2016, 05:01 | Просмотров: 47



    Детально о кино
    Русское название: И гаснет свет...
    Русское название в мировом прокате: Lights Out
    Создали в: 2016
    Категория жанра: Ужасы
    Главный режиссер: Дэвид Ф. Сандберг

    Актеры
    Тереза Палмер, Гэбриел Бейтман, Александр ДиПерсиа, Билли Бёрк, Мария Белло, Алисия Вела-Бэйли, Энди Ошо, Роландо Бойс, Мария Расселл, Элизабет Пан
    О фильме:
    Когда Ребекка покинула родной дом, она думала, что её детские страхи остались позади. Ребенком она никогда не была уверена, что реально, а что нет, когда гас свет, и теперь её младший брат Мартин переживает те же необъяснимые и ужасные события, которые когда-то испытывали на прочность её рассудок и угрожали её безопасности. Пугающее нечто, таинственным образом привязанное к их матери Софи, появилось вновь. Но на этот раз Ребекка подбирается к разгадке истины, и уже не остается сомнений в том, что их жизни в опасности, как только будет погашен свет.

    Снималось в: США
    Киностудия: New Line Cinema
    Время просмотра: 01: 20: 55
    Перевод текста: Дублированный | iTunes
    Файл
    Кодек для видео: MPEG-4
    Качество фильма: WEB-DL 720p
    Информация о видео: 1280x532, 4133 Кbit/s, 23.976 fps
    Информация о звуке:
    Информация о звуке #01: 48 kHz, AC3, 5.1, 384 Kbps | Дублированный | iTunes |
    Информация о звуке #02: 48 kHz, AC3, 5.1, 384 kbps | Оригинал |
    MI
    General
    Unique ID : 250027254158067741441225034047863569447 (0xBC197F60B88E0297820EFA60C8AABC27)
    Complete name : H: VideoLights.Out.2016.WEB-DL.720p.ExKinoRay.mkv
    Format : Matroska
    Format version : Version 4/Version 2
    File size : 2.77 GiB
    Duration : 1 h 20 min
    Overall bit rate : 4 903 kb/s
    Encoded date : UTC 2016-10-11 19: 31: 42
    Writing application : mkvmerge v8.3.0 (;Over the Horizon;) 64bit
    Writing library : libebml v1.3.1 + libmatroska v1.4.2
    Video
    ID : 1
    Format : AVC
    Format/Info : Advanced Video Codec
    Format profile : Main@L3.1
    Format settings, CABAC : No
    Format settings, ReFrames : 2 frames
    Codec ID : V_MPEG4/ISO/AVC
    Duration : 1 h 20 min
    Bit rate : 4 133 kb/s
    Width : 1 280 pixels
    Height : 532 pixels
    Display aspect ratio : 2.40: 1
    Frame rate mode : Constant
    Frame rate : 23.976 (23976/1000) FPS
    Color space : YUV
    Chroma subsampling : 4: 2: 0
    Bit depth : 8 bits
    Scan type : Progressive
    Bits/(Pixel*Frame) : 0.253
    Stream size : 2.34 GiB (84%)
    Language : English
    Default : Yes
    Forced : No
    Color range : Limited
    Color primaries : BT.709
    Transfer characteristics : BT.709
    Matrix coefficients : BT.709
    Audio #1
    ID : 2
    Format : AC-3
    Format/Info : Audio Coding 3
    Mode extension : CM (complete main)
    Format settings, Endianness : Big
    Codec ID : A_AC3
    Duration : 1 h 20 min
    Bit rate mode : Constant
    Bit rate : 384 kb/s
    Channel(s) : 6 channels
    Channel positions : Front: L C R, Side: L R, LFE
    Sampling rate : 48.0 kHz
    Frame rate : 31.250 FPS (1536 spf)
    Compression mode : Lossy
    Stream size : 222 MiB (8%)
    Title : iTunes
    Language : Russian
    Default : Yes
    Forced : No
    Audio #2
    ID : 3
    Format : AC-3
    Format/Info : Audio Coding 3
    Mode extension : CM (complete main)
    Format settings, Endianness : Big
    Codec ID : A_AC3
    Duration : 1 h 20 min
    Bit rate mode : Constant
    Bit rate : 384 kb/s
    Channel(s) : 6 channels
    Channel positions : Front: L C R, Side: L R, LFE
    Sampling rate : 48.0 kHz
    Frame rate : 31.250 FPS (1536 spf)
    Compression mode : Lossy
    Stream size : 222 MiB (8%)
    Language : English
    Default : No
    Forced : No
    Menu
    00: 00: 00.000 : en: 1
    00: 10: 01.000 : en: 2
    00: 21: 07.000 : en: 3
    00: 30: 12.000 : en: 4
    00: 40: 57.000 : en: 5
    00: 50: 38.000 : en: 6
    00: 58: 43.000 : en: 7
    01: 09: 54.000 : en: 8
    01: 16: 20.000 : en: 9


    Релиз подготовил: Автор релиза:

    Онлайн видео И гаснет свет...


    Размер скачиваемого торрента: 2.77 GB (2975782778 Bytes)

    И гаснет свет.../Lights Out (2016) WEB-DL 720p от ExKinoRay | iTunes
    загрузка...
    Рейтинг →
     (голосов: 1, оценка 3/5, голосовать можно 1 раз )

    Другие торренты по теме:

  • Когда гаснет свет / When the Lights Went Out (2012) BDRip-AVC | iPad торрент скачать бесплатно
  • Когда гаснет свет / Te Zhong Jiu Yuan Ying Xiong (2014) HDRip | A скачать через торрент бесплатно
  • Когда гаснет свет / Te Zhong Jiu Yuan Ying Xiong / As the Light Goes Out (2014) BDRip 1080p от MediaClub | A скачать через торрент бесплатно
  • Когда гаснет свет / Jiu huo ying xiong (2014) HDRip от RG Orient Extreme | L1 торрент скачать бесплатно
  • И гаснет свет... / Lights Out (2016) WEB-DLRip | Line скачать торрент бесплатно
  • И гаснет свет... / Lights Out (2016) HDRip от MegaPeer | iTunes скачать торрент бесплатно
  • И гаснет свет... / Lights Out (2016) HDRip от MegaPeer | iTunes скачать торрент бесплатно
  • И гаснет свет... / Lights Out (2016) HDRip от Generalfilm | КПК | iTunes скачать торрент бесплатно


    • Комментарии (0):

      Информация

      Информация

        Посетители, находящиеся в группе Гости, не могут оставлять комментарии в данной новости.

        ↓ Меню



        ↓ Опрос

        А Вы добавили сайт в закладки?
        Да
        Не


        Top 10 за неделю (Фильмы)