.
Авторизация | Регистрация
» » Охотники за привидениями / Ghostbusters (2016) DVD-9 от NovaLan | iTunes скачать торрент бесплатно




    Охотники за привидениями / Ghostbusters (2016) DVD-9 от NovaLan | iTunes скачать торрент бесплатно

    Опубликовал: Админ | Дата: 14-10-2016, 05:01 | Просмотров: 52



    Детально о кино
    Русское название: Охотники за привидениями
    Русское название в мировом прокате: Ghostbusters
    Создали в: 2016
    Категория жанра: Фантастика
    Главный режиссер: Пол Фиг

    Актеры
    Мелисса МакКарти, Кристен Уиг, Кейт МакКиннон, Лесли Джонс, Крис Хемсворт, Сесили Стронг, Энди Гарсиа, Нил Кэйси, Чарльз Дэнс, Майкл Кеннет Уильямс
    Описание: Тридцать лет назад охотники за привидениями спасли Нью-Йорк от нашествия призраков, но теперь городу вновь угрожает опасность. Былые герои не могут стать на его защиту, но находятся и другие отважные люди, всю свою жизнь посвятившие изучению паранормальных явлений. Эбби Йейтс объединяется с Эрин Гилберт, пожалуй лучшим специалистом в квантовой физике, и вместе они собирают команду новых охотников за привидениями, в которую принимают отличного инженера Джиллиан Хольцман, сотрудницу метрополитена Пэтти Толан, знающую город как свои пять пальцев, и секретаря — настоящего красавчика Кэвина. Вместе они начинают борьбу с нечистой силой, терроризирующей мегаполис…
    Снималось в: США
    Киностудия: Columbia Pictures, Feigco Entertainment, The Montecito Picture Company
    Время просмотра: 01: 56: 27
    Перевод текста: Дублированный
    Файл
    Кодек для видео: MPEG-2
    Качество фильма: DVD-9
    Информация о видео: MPEG2, NTSC 16: 9 (720x480@853x480) VBR, 23, 976 кадра/сек
    Информация о звуке: Русский/Английский DD 5.1 (384 Kbps)

    Меню
    DVDInfo

    Title:
    Size: 6.71 Gb ( 7 036 494 KBytes ) - DVD-9
    Enabled regions: 1, 2, 3, 4, 5, 6, 7, 8
    VTS_01 :
    Play Length: 01: 56: 27
    Video: NTSC 16: 9 (720x480) VBR, Auto PanScan
    Audio:
    Russian (Dolby AC3, 6 ch)
    English (Dolby AC3, 6 ch)
    Menu Video:
    NTSC 4: 3 (720x480) VBR
    Menu English Language Unit :
    Root Menu
    MediaInfo

    Общее
    Полное имя : G: ААА2ОХОТНИКИ ЗА ПРИВЕДЕНИЯМИVIDEO_TSVTS_01_1.VOB
    Формат : MPEG-PS
    Размер файла : 1000 Мбайт
    Продолжительность : 18 м.
    Режим общего битрейта : Переменный
    Общий поток : 7410 Кбит/сек
    Видео
    Идентификатор : 224 (0xE0)
    Формат : MPEG Video
    Версия формата : Version 2
    Профиль формата : Main@Main
    Параметр BVOP формата : Да
    Параметр матрицы формата : По умолчанию
    Параметр GOP формата : M=3, N=12
    Продолжительность : 18 м.
    Вид битрейта : Переменный
    Битрейт : 6495 Кбит/сек
    Максимальный битрейт : 8320 Кбит/сек
    Ширина : 720 пикселей
    Высота : 480 пикселей
    Соотношение сторон : 16: 9
    Частота кадров : 23, 976 кадра/сек
    Стандарт вещания : NTSC
    Цветовое пространство : YUV
    Субдискретизация насыщенности : 4: 2: 0
    Битовая глубина : 8 бит
    Тип развёртки : Прогрессивная
    Порядок развёртки : 2: 3 Pulldown
    Метод сжатия : С потерями
    Бит/(Пиксели*Кадры) : 0.784
    TimeCode_FirstFrame : 00: 00: 00;00
    TimeCode_Source : Group of pictures t_head
    Размер потока : 876 Мбайт (88%)
    Аудио #1
    Идентификатор : 189 (0xBD)-128 (0x80)
    Формат : AC-3
    Формат/Информация : Audio Coding 3
    Расширение режима : CM (complete main)
    Параметр Endianness формата : Big
    Режим смешивания : DVD-Video
    Продолжительность : 18 м.
    Вид битрейта : Постоянный
    Битрейт : 384 Кбит/сек
    Каналы : 6 каналов
    Расположение каналов : Front: L C R, Side: L R, LFE
    Частота : 48, 0 КГц
    Битовая глубина : 16 бит
    Метод сжатия : С потерями
    Размер потока : 51, 8 Мбайт (5%)
    Аудио #2
    Идентификатор : 189 (0xBD)-129 (0x81)
    Формат : AC-3
    Формат/Информация : Audio Coding 3
    Расширение режима : CM (complete main)
    Параметр Endianness формата : Big
    Режим смешивания : DVD-Video
    Продолжительность : 18 м.
    Вид битрейта : Постоянный
    Битрейт : 384 Кбит/сек
    Каналы : 6 каналов
    Расположение каналов : Front: L C R, Side: L R, LFE
    Частота : 48, 0 КГц
    Битовая глубина : 16 бит
    Метод сжатия : С потерями
    Размер потока : 51, 8 Мбайт (5%)
    Меню

    Скриншоты



    Релиз:
    Залил: YArl

    Онлайн видео Охотники за привидениями


    Размер скачиваемого торрента: 6.71 GB (7205369856 Bytes)

    Охотники за привидениями/Ghostbusters (2016) DVD-9 от NovaLan | iTunes
    загрузка...
    Рейтинг →
     (голосов: 1, оценка 5/5, голосовать можно 1 раз )

    Другие торренты по теме:

  • Настоящие охотники за привидениями / The Real Ghost Busters (1986) DVDRip торрент скачать бесплатно
  • OST - Охотники за привидениями / Ghostbusters (1984, 1989) MP3 торрент скачать бесплатно
  • Охотники за привидениями / GhostBusters (1984) BDRip 1080p от Freeisland торрент скачать бесплатно
  • Охотники за привидениями / Ghost Busters (1984) BDRip 1080p от Youtracker | Mastered in 4K торрент скачать бесплатно
  • Охотники за привидениями 2 / Ghostbusters 2 (1989) WEB-DLRip от New-Team торрент скачать бесплатно
  • Охотники за привидениями / Ghostbusters (1984) HDRip от New-Team скачать через торрент бесплатно
  • Охотники за привидениями / GhostBusters (1984) BDRip-AVC от MediaClub | D, P, P2, A скачать через торрент бесплатно
  • Охотники за привидениями 2 / Ghostbusters II (1989) HDRip от Scarabey | Р торрент скачать бесплатно


    • Комментарии (0):

      Информация

      Информация

        Посетители, находящиеся в группе Гости, не могут оставлять комментарии в данной новости.

        ↓ Меню



        ↓ Опрос

        А Вы добавили сайт в закладки?
        Да
        Не


        Top 10 за неделю (Фильмы)