.
Авторизация | Регистрация
» » Вуаль / The Veil (2016) BDRip 1080p от ExKinoRay | iTunes скачать торрент бесплатно




    Вуаль / The Veil (2016) BDRip 1080p от ExKinoRay | iTunes скачать торрент бесплатно

    Опубликовал: Админ | Дата: 15-10-2016, 05:01 | Просмотров: 36



    Детально о кино
    Русское название: Вуаль
    Русское название в мировом прокате: The Veil
    Создали в: 2016
    Категория жанра: Ужасы
    Главный режиссер: Фил Джоану

    Актеры
    Джессика Альба, Томас Джейн, Лили Рэйб, Шеннон Мари Вудворд, Рейд Скотт, Алекса Палладино, Ленни Джейкобсон, Айви Джордж, Джек Де Сена
    О фильме:
    Спустя тридцать лет после того, как члены религиозного культа совершили массовое самоубийство, единственный выживший из них возвращается на место трагедии, прихватив с собой группу кинодокументалистов.

    Снималось в: США
    Киностудия: Blumhouse Productions
    Время просмотра: 01: 33: 30
    Перевод текста: Дублированный | iTunes
    Файл
    Кодек для видео: MPEG-4
    Качество фильма: BDRip 1080p
    Информация о видео: 1920x800, 10.5 Mbit/s, 23.976 fps
    Информация о звуке:
    Информация о звуке #01: 48 kHz, AC3, 2.0, 384 Kbps | Дублированный | iTunes |
    Информация о звуке #02: 48 kHz, AC3, 5.1, 640 kbps | Оригинал |
    Субтитры: Русские (full, forced), английские
    MI
    General
    Unique ID : 235310490474763909530468869811137883966 (0xB10726E861FC983BB4A2E752E0EF2F3E)
    Complete name : H: VideoThe.Veil.2016.BDRip.1080p.ExKinoRay.mkv
    Format : Matroska
    Format version : Version 4/Version 2
    File size : 7.52 GiB
    Duration : 1 h 33 min
    Overall bit rate : 11.5 Mb/s
    Movie name : ***селезень***
    Encoded date : UTC 2016-10-14 19: 55: 25
    Writing application : mkvmerge v8.3.0 (;Over the Horizon;) 64bit
    Writing library : libebml v1.3.1 + libmatroska v1.4.2
    Video
    ID : 1
    Format : AVC
    Format/Info : Advanced Video Codec
    Format profile : High@L4.1
    Format settings, CABAC : Yes
    Format settings, ReFrames : 5 frames
    Codec ID : V_MPEG4/ISO/AVC
    Duration : 1 h 33 min
    Bit rate : 10.5 Mb/s
    Width : 1 920 pixels
    Height : 800 pixels
    Display aspect ratio : 2.40: 1
    Frame rate mode : Constant
    Frame rate : 23.976 (24000/1001) FPS
    Color space : YUV
    Chroma subsampling : 4: 2: 0
    Bit depth : 8 bits
    Scan type : Progressive
    Bits/(Pixel*Frame) : 0.285
    Stream size : 6.85 GiB (91%)
    Title : ***селезень***
    Writing library : x264 core 142 r2431+42 c69a006 tMod 8-bit@all X86_64
    Encoding settings : cabac=1/ref=5/deblock=1: -3: -3/analyse=0x3: 0x133/me=umh/subme=11/psy=1/fade_compensate=0.00/psy_rd=1.00: 1.00/mixed_ref=1/me_range=36/chroma_me=1/trellis=2/8x8dct=1/cqm=0/deadzone=21, 11/fast_pskip=0/chroma_qp_offset=-4/threads=16/lookahead_threads=2/sliced_threads=0/nr=0/decimate=0/interlaced=0/bluray_compat=0/constrained_intra=0/fgo=0/bframes=8/b_pyramid=2/b_adapt=2/b_bias=0/direct=3/weightb=1/open_gop=0/weightp=2/keyint=240/keyint_min=23/scenecut=40/intra_refresh=0/rc_lookahead=150/rc=2pass/mbtree=0/bitrate=10500/ratetol=1.0/qcomp=0.60/qpmin=0: 0: 0/qpmax=69: 69: 69/qpstep=4/cplxblur=20.0/qblur=0.5/vbv_maxrate=40000/vbv_bufsize=30000/nal_hrd=none/filler=0/ip_ratio=1.20/pb_ratio=1.30/aq=2: 0.68/aq-sensitivity=10.00/aq-factor=1.00: 1.00: 1.00/aq2=0/aq3=0
    Language : English
    Default : Yes
    Forced : No
    Color range : Limited
    Color primaries : BT.709
    Transfer characteristics : BT.709
    Matrix coefficients : BT.709
    Audio #1
    ID : 2
    Format : AC-3
    Format/Info : Audio Coding 3
    Mode extension : CM (complete main)
    Format settings, Endianness : Big
    Codec ID : A_AC3
    Duration : 1 h 33 min
    Bit rate mode : Constant
    Bit rate : 384 kb/s
    Channel(s) : 2 channels
    Channel positions : Front: L R
    Sampling rate : 48.0 kHz
    Frame rate : 31.250 FPS (1536 spf)
    Compression mode : Lossy
    Stream size : 257 MiB (3%)
    Title : iTunes
    Language : Russian
    Default : Yes
    Forced : No
    Audio #2
    ID : 3
    Format : AC-3
    Format/Info : Audio Coding 3
    Mode extension : CM (complete main)
    Format settings, Endianness : Big
    Codec ID : A_AC3
    Duration : 1 h 33 min
    Bit rate mode : Constant
    Bit rate : 640 kb/s
    Channel(s) : 6 channels
    Channel positions : Front: L C R, Side: L R, LFE
    Sampling rate : 48.0 kHz
    Frame rate : 31.250 FPS (1536 spf)
    Compression mode : Lossy
    Stream size : 428 MiB (6%)
    Title : Original
    Language : English
    Default : No
    Forced : No
    Text #1
    ID : 4
    Format : UTF-8
    Codec ID : S_TEXT/UTF8
    Codec ID/Info : UTF-8 Plain Text
    Duration : 1 h 14 min
    Bit rate : 1 b/s
    Count of elements : 15
    Stream size : 750 Bytes (0%)
    Title : Forced
    Language : Russian
    Default : Yes
    Forced : No
    Text #2
    ID : 5
    Format : UTF-8
    Codec ID : S_TEXT/UTF8
    Codec ID/Info : UTF-8 Plain Text
    Duration : 1 h 28 min
    Bit rate : 76 b/s
    Count of elements : 1086
    Stream size : 49.7 KiB (0%)
    Title : Full
    Language : Russian
    Default : No
    Forced : No
    Text #3
    ID : 6
    Format : UTF-8
    Codec ID : S_TEXT/UTF8
    Codec ID/Info : UTF-8 Plain Text
    Duration : 1 h 25 min
    Bit rate : 44 b/s
    Count of elements : 894
    Stream size : 28.3 KiB (0%)
    Title : Full
    Language : English
    Default : No
    Forced : No
    Menu
    00: 00: 00.000 : en: 00: 00: 00.000
    00: 06: 26.886 : en: 00: 06: 26.886
    00: 15: 02.401 : en: 00: 15: 02.401
    00: 21: 43.928 : en: 00: 21: 43.928
    00: 29: 16.254 : en: 00: 29: 16.254
    00: 35: 21.077 : en: 00: 35: 21.077
    00: 44: 29.417 : en: 00: 44: 29.417
    00: 50: 43.040 : en: 00: 50: 43.040
    01: 00: 10.816 : en: 01: 00: 10.816
    01: 06: 31.779 : en: 01: 06: 31.779
    01: 12: 19.835 : en: 01: 12: 19.835
    01: 20: 54.266 : en: 01: 20: 54.266


    Релиз подготовил: Автор релиза:
    Размер скачиваемого торрента: 7.52 GB (8073312051 Bytes)

    Вуаль/The Veil (2016) BDRip 1080p от ExKinoRay | iTunes
    загрузка...
    Рейтинг →
     (голосов: 1, оценка 5/5, голосовать можно 1 раз )

    Другие торренты по теме:

  • Разрисованная вуаль / The Painted Veil (1934) DVDRip-AVC от -=HD-NET=- торрент скачать бесплатно
  • Разрисованная вуаль / The Painted Veil (2006) BDRip-AVC от MediaClub | D, P2, A скачать через торрент бесплатно
  • Разрисованная вуаль / The Painted Veil (2006) BDRip 720p от MediaClub | D, P2, A скачать через торрент бесплатно
  • Разрисованная вуаль / The Painted Veil (2006) BDRip 1080p от MediaClub | D, P2, A скачать через торрент бесплатно
  • Седьмая вуаль / The Seventh Veil / 1945 / АП (Рутилов), СТ / DVDRip скачать торрент бесплатно
  • Разрисованная вуаль / The Painted Veil (2006) HDRip от Scarabey | D скачать торрент бесплатно
  • Вуаль / The Veil (2016) BDRip 720p | Чистый звук скачать торрент бесплатно
  • Вуаль / The Veil (2016) HDRip от Portablius | Line скачать торрент бесплатно


    • Комментарии (0):

      Информация

      Информация

        Посетители, находящиеся в группе Гости, не могут оставлять комментарии в данной новости.

        ↓ Меню



        ↓ Опрос

        А Вы добавили сайт в закладки?
        Да
        Не


        Top 10 за неделю (Фильмы)