.
Авторизация | Регистрация
» » Поп-звезда: не переставай, не останавливайся / Popstar: Never Stop Never Stopping (2016) BDRip 1080р от ExKinoRay | iTunes скачать торрент бесплатно




    Поп-звезда: не переставай, не останавливайся / Popstar: Never Stop Never Stopping (2016) BDRip 1080р от ExKinoRay | iTunes скачать торрент бесплатно

    Опубликовал: Админ | Дата: 15-10-2016, 05:02 | Просмотров: 45



    Детально о кино
    Русское название: Поп-звезда: Не переставай, не останавливайся
    Русское название в мировом прокате: Popstar: Never Stop Never Stopping
    Создали в: 2016
    Категория жанра: Комедия, музыка
    Главный режиссер: Акива Шаффер, Йорма Такконе

    Актеры
    Энди Сэмберг, Йорма Такконе, Акива Шаффер, Сара Силверман, Тим Медоуз, Майя Рудольф, Джоан Кьюсак, Имоджен Путс, Крис Редд
    О фильме:
    С самого детства Коннер был без ума от музыки. Ещё ребёнком он с двумя лучшими друзьями создал группу The Style Boyz. Группа стала очень популярной, и Коннор зазвездился, решив, что успех группы — исключительно его заслуга. Один друг детства вовсе перестал с ним разговаривать, другой работает у Коннера диджеем. А лучшие друзья суперзвезды — его менеджер, организатор вечеринок и прочие непонятные личности, которым бы только тусоваться с утра до ночи. И вот приближается великий день — выход нового сольного альбома. Но, как известно, чем выше ты взлетел, тем больнее будет падать.

    Снималось в: США
    Киностудия: Apatow Productions, Universal Pictures, Party Over Here
    Время просмотра: 01: 26: 30
    Перевод текста: Дублированный | iTunes
    Файл
    Кодек для видео: MPEG-4
    Качество фильма: BDRip 1080p
    Информация о видео: 1920x800, 11.0 Mbit/s, 23.976 fps
    Информация о звуке:
    Информация о звуке #01: 48 kHz, AC3, 2.0, 384 Kbps | Дублированный | iTunes |
    Информация о звуке #02: 48 kHz, AC3, 5.1, 640 kbps | Оригинал |
    Субтитры: Русские (forced), английские
    MI
    General
    Unique ID : 190262111579193141108103892157002126579 (0x8F2326591D2D7B6B9C83CEB8DE5F94F3)
    Complete name : H: VideoPopstar.Never.Stop.Never.Stopping.2016.D.BDRip.1080p.ExKinoRay.mkv
    Format : Matroska
    Format version : Version 4/Version 2
    File size : 7.26 GiB
    Duration : 1 h 26 min
    Overall bit rate : 12.0 Mb/s
    Movie name : ***селезень***
    Encoded date : UTC 2016-10-14 15: 21: 46
    Writing application : mkvmerge v8.3.0 (;Over the Horizon;) 64bit
    Writing library : libebml v1.3.1 + libmatroska v1.4.2
    Video
    ID : 1
    Format : AVC
    Format/Info : Advanced Video Codec
    Format profile : High@L4.1
    Format settings, CABAC : Yes
    Format settings, ReFrames : 5 frames
    Codec ID : V_MPEG4/ISO/AVC
    Duration : 1 h 26 min
    Bit rate : 11.0 Mb/s
    Width : 1 920 pixels
    Height : 800 pixels
    Display aspect ratio : 2.40: 1
    Frame rate mode : Constant
    Frame rate : 23.976 (24000/1001) FPS
    Color space : YUV
    Chroma subsampling : 4: 2: 0
    Bit depth : 8 bits
    Scan type : Progressive
    Bits/(Pixel*Frame) : 0.299
    Stream size : 6.64 GiB (91%)
    Title : ***селезень***
    Writing library : x264 core 142 r2431+42 c69a006 tMod 8-bit@all X86_64
    Encoding settings : cabac=1/ref=5/deblock=1: -3: -3/analyse=0x3: 0x113/me=umh/subme=11/psy=1/fade_compensate=0.00/psy_rd=1.05: 1.05/mixed_ref=1/me_range=48/chroma_me=1/trellis=2/8x8dct=1/cqm=0/deadzone=21, 11/fast_pskip=0/chroma_qp_offset=-4/threads=16/lookahead_threads=1/sliced_threads=0/nr=0/decimate=0/interlaced=0/bluray_compat=0/constrained_intra=0/fgo=0/bframes=10/b_pyramid=2/b_adapt=1/b_bias=0/direct=3/weightb=1/open_gop=0/weightp=2/keyint=240/keyint_min=23/scenecut=40/intra_refresh=0/rc_lookahead=100/rc=2pass/mbtree=0/bitrate=11000/ratetol=1.0/qcomp=0.90/qpmin=0: 0: 0/qpmax=69: 69: 69/qpstep=4/cplxblur=20.0/qblur=0.5/vbv_maxrate=62500/vbv_bufsize=78125/nal_hrd=none/filler=0/ip_ratio=1.40/pb_ratio=1.30/aq=2: 0.90/aq-sensitivity=10.00/aq-factor=1.00: 1.00: 1.00/aq2=0/aq3=0
    Language : English
    Default : Yes
    Forced : No
    Color range : Limited
    Color primaries : BT.709
    Transfer characteristics : BT.709
    Matrix coefficients : BT.709
    Audio #1
    ID : 2
    Format : AC-3
    Format/Info : Audio Coding 3
    Mode extension : CM (complete main)
    Format settings, Endianness : Big
    Codec ID : A_AC3
    Duration : 1 h 26 min
    Bit rate mode : Constant
    Bit rate : 384 kb/s
    Channel(s) : 2 channels
    Channel positions : Front: L R
    Sampling rate : 48.0 kHz
    Frame rate : 31.250 FPS (1536 spf)
    Compression mode : Lossy
    Stream size : 238 MiB (3%)
    Title : iTunes
    Language : Russian
    Default : Yes
    Forced : No
    Audio #2
    ID : 3
    Format : AC-3
    Format/Info : Audio Coding 3
    Mode extension : CM (complete main)
    Format settings, Endianness : Big
    Codec ID : A_AC3
    Duration : 1 h 26 min
    Bit rate mode : Constant
    Bit rate : 640 kb/s
    Channel(s) : 6 channels
    Channel positions : Front: L C R, Side: L R, LFE
    Sampling rate : 48.0 kHz
    Frame rate : 31.250 FPS (1536 spf)
    Compression mode : Lossy
    Stream size : 396 MiB (5%)
    Title : Original
    Language : English
    Default : No
    Forced : No
    Text #1
    ID : 4
    Format : UTF-8
    Codec ID : S_TEXT/UTF8
    Codec ID/Info : UTF-8 Plain Text
    Duration : 1 h 24 min
    Bit rate : 33 b/s
    Count of elements : 382
    Stream size : 20.8 KiB (0%)
    Title : Forced
    Language : Russian
    Default : Yes
    Forced : No
    Text #2
    ID : 5
    Format : UTF-8
    Codec ID : S_TEXT/UTF8
    Codec ID/Info : UTF-8 Plain Text
    Duration : 1 h 25 min
    Bit rate : 112 b/s
    Count of elements : 2218
    Stream size : 71.0 KiB (0%)
    Title : Full
    Language : English
    Default : No
    Forced : No
    Menu
    00: 00: 00.000 : en: Chapter 01
    00: 05: 54.479 : en: Chapter 02
    00: 09: 26.566 : en: Chapter 03
    00: 14: 38.168 : en: Chapter 04
    00: 19: 34.214 : en: Chapter 05
    00: 24: 49.279 : en: Chapter 06
    00: 28: 27.539 : en: Chapter 07
    00: 31: 45.069 : en: Chapter 08
    00: 36: 11.669 : en: Chapter 09
    00: 40: 15.579 : en: Chapter 10
    00: 43: 03.914 : en: Chapter 11
    00: 46: 44.092 : en: Chapter 12
    00: 51: 06.813 : en: Chapter 13
    00: 54: 38.775 : en: Chapter 14
    00: 59: 17.845 : en: Chapter 15
    01: 05: 15.161 : en: Chapter 16
    01: 08: 43.077 : en: Chapter 17
    01: 13: 13.597 : en: Chapter 18
    01: 16: 52.941 : en: Chapter 19
    01: 22: 29.736 : en: Chapter 20


    Релиз подготовил: Автор релиза:

    Онлайн видео Поп-звезда: не переставай, не останавливайся


    Размер скачиваемого торрента: 7.26 GB (7792637193 Bytes)

    Поп-звезда: не переставай, не останавливайся/Popstar: Never Stop Never Stopping (2016) BDRip 1080р от ExKinoRay | iTunes
    загрузка...
    Рейтинг →
     (голосов: 1, оценка 3/5, голосовать можно 1 раз )

    Другие торренты по теме:

  • Поп-звезда: не переставай, не останавливайся / Popstar: Never Stop Never Stopping (2016) WEB-DLRip 1080р | L скачать торрент бесплатно
  • Поп-звезда: не переставай, не останавливайся / Popstar: Never Stop Never Stopping (2016) HDRip от MegaPeer | iTunes скачать торрент бесплатно
  • Поп-звезда: не переставай, не останавливайся / Popstar: Never Stop Never Stopping (2016) BDRemux 1080р от ExKinoRay | iTunes скачать торрент бесплатно


    • Комментарии (0):

      Информация

      Информация

        Посетители, находящиеся в группе Гости, не могут оставлять комментарии в данной новости.

        ↓ Меню



        ↓ Опрос

        А Вы добавили сайт в закладки?
        Да
        Не


        Top 10 за неделю (Фильмы)