.
Авторизация | Регистрация
» » Охотники за головами / Bounty Hunters (2016) BDRemux 1080p | L, L2 скачать торрент бесплатно




    Охотники за головами / Bounty Hunters (2016) BDRemux 1080p | L, L2 скачать торрент бесплатно

    Опубликовал: Админ | Дата: 4-11-2016, 05:00 | Просмотров: 61



    Охотники за головами / Bounty Hunters
    Снималось в: Китай
    Создали в: Harmonious Entertainment Shanghai, Pegasus Motion Pictures, Starhaus Entertainment
    Создали в: 2016
    Категория жанра: боевик, мелодрама, комедия
    Время просмотра: 01: 45: 14
    Главный режиссер: Щин Тхэ-ра
    Автор сценария: Эдмонд Вон

    Актеры
    Ли Мин-хо, Уоллес Чун, Тан Янь, Джонс Джереми, Карена Нг, Луис Фань
    Описание: История о пяти охотниках из Кореи, Китая, Гонконга и Таиланда, которые ловят преступников за деньги...

    Перевод текста: Любительский (многоголосый) | STEPonee+ Любительский (двухголосый) | SoftBox
    Субтитры: русские (forced), английские
    Качество фильма: BDRemux 1080p
    Тип видео: МКV
    Информация о видео кодек: AVC
    Информация о звуке кодек: АС3| DTS
    Информация о видео: 1920x1080 (16: 9), 24.000 fps, MPEG-4 AVC ~17.0 Мbps avg
    Информация о звуке №1: 48.0 kHz, AC3 Dolby Digital, 2/0 (L, R) ch, ~192 kbps | RUS/ МVO/STEPonee
    Информация о звуке №2: 48.0 kHz, AC3 Dolby Digital, 2/0 (L, R) ch, ~192 kbps | RUS/ DVO/SoftBox
    Информация о звуке №3: 96.0 kHz, Digital Theater Systems Master Audio, 3/2 (L, C, R, l, r) + LFE ch, ~3840 kbps/24-bit | CHI/ Cantonese
    Информация о звуке №4: 96.0 kHz, Digital Theater Systems Master Audio, 3/2 (L, C, R, l, r) + LFE ch, ~3944 kbps/24-bit | CHI/ Mandarin
    Тип видео субтитров: UTF-8 Plain Text
    Дата премьеры (мир): 1 июля 2016
    Релиз подготовил:
    BDRemux Info

    Уникальный идентификатор : 229265719312479310895918033981364896595 (0xAC7AF8ADF7C324AF86D7252B525A0353)
    Полное имя : Bounty.Hunters.2016.BDRemux.1080p.by_vedigo.mkv
    Формат : Matroska
    Версия формата : Version 4/Version 2
    Размер файла : 18, 5 Гбайт
    Продолжительность : 1 ч. 45 м.
    Режим общего битрейта : Переменный
    Общий поток : 25, 2 Мбит/сек
    Название фильма : Bounty.Hunters.2016.BDRemux.1080p.by_ vedigo
    Дата кодирования : UTC 2016-11-01 22: 15: 10
    Программа кодирования : mkvmerge v9.5.0 (;Quiet Fire;) 64bit
    Библиотека кодирования : libebml v1.3.4 + libmatroska v1.4.5
    Видео
    Идентификатор : 1
    Формат : AVC
    Формат/Информация : Advanced Video Codec
    Профиль формата : High@L4.1
    Параметр CABAC формата : Да
    Параметр ReFrames формата : 4 кадра
    Идентификатор кодека : V_MPEG4/ISO/AVC
    Продолжительность : 1 ч. 45 м.
    Вид битрейта : Переменный
    Битрейт : 17, 0 Мбит/сек
    Максимальный битрейт : 25, 0 Мбит/сек
    Ширина : 1920 пикселей
    Высота : 1080 пикселей
    Соотношение сторон : 16: 9
    Режим частоты кадров : Постоянный
    Частота кадров : 24, 000 кадра/сек
    Стандарт вещания : NTSC
    Цветовое пространство : YUV
    Субдискретизация насыщенности : 4: 2: 0
    Битовая глубина : 8 бит
    Тип развёртки : Прогрессивная
    Бит/(Пиксели*Кадры) : 0.341
    Размер потока : 12, 5 Гбайт (67%)
    Заголовок : Bounty.Hunters.2016.BDRemux.1080p.by_ vedigo
    Default : Да
    Forced : Нет
    Цветовой диапазон : Limited
    Основные цвета : BT.709
    Характеристики трансфера : BT.709
    Коэффициенты матрицы : BT.709
    Аудио #1
    Идентификатор : 2
    Формат : AC-3
    Формат/Информация : Audio Coding 3
    Расширение режима : CM (complete main)
    Параметр Endianness формата : Big
    Идентификатор кодека : A_AC3
    Продолжительность : 1 ч. 45 м.
    Вид битрейта : Постоянный
    Битрейт : 192 Кбит/сек
    Каналы : 2 канала
    Расположение каналов : Front: L R
    Частота : 48, 0 КГц
    Частота кадров : 31, 250 кадров/сек (1536 spf)
    Метод сжатия : С потерями
    Размер потока : 145 Мбайт (1%)
    Заголовок : MVO @ STEPonee
    Язык : Russian
    Default : Да
    Forced : Нет
    Аудио #2
    Идентификатор : 3
    Формат : AC-3
    Формат/Информация : Audio Coding 3
    Расширение режима : CM (complete main)
    Параметр Endianness формата : Big
    Идентификатор кодека : A_AC3
    Продолжительность : 1 ч. 45 м.
    Вид битрейта : Постоянный
    Битрейт : 192 Кбит/сек
    Каналы : 2 канала
    Расположение каналов : Front: L R
    Частота : 48, 0 КГц
    Частота кадров : 31, 250 кадров/сек (1536 spf)
    Метод сжатия : С потерями
    Размер потока : 145 Мбайт (1%)
    Заголовок : DVO @ SoftBox
    Язык : Russian
    Default : Нет
    Forced : Нет
    Аудио #3
    Идентификатор : 4
    Формат : DTS
    Формат/Информация : Digital Theater Systems
    Профиль формата : MA/Core
    Режим : 16
    Параметр Endianness формата : Big
    Идентификатор кодека : A_DTS
    Продолжительность : 1 ч. 45 м.
    Вид битрейта : Переменный/Постоянный
    Битрейт : 3840 Кбит/сек/1509 Кбит/сек
    Каналы : 6 каналов
    Расположение каналов : Front: L C R, Side: L R, LFE
    Частота : 96, 0 КГц/48, 0 КГц
    Частота кадров : 93, 750 кадра/сек (512 spf)
    Битовая глубина : 24 бит
    Метод сжатия : Без потерь/Lossy
    Размер потока : 2, 88 Гбайт (16%)
    Заголовок : Cantonese
    Язык : Chinese
    Default : Нет
    Forced : Нет
    Аудио #4
    Идентификатор : 5
    Формат : DTS
    Формат/Информация : Digital Theater Systems
    Профиль формата : MA/Core
    Режим : 16
    Параметр Endianness формата : Big
    Идентификатор кодека : A_DTS
    Продолжительность : 1 ч. 45 м.
    Вид битрейта : Переменный/Постоянный
    Битрейт : 3944 Кбит/сек/1509 Кбит/сек
    Каналы : 6 каналов
    Расположение каналов : Front: L C R, Side: L R, LFE
    Частота : 96, 0 КГц/48, 0 КГц
    Частота кадров : 93, 750 кадра/сек (512 spf)
    Битовая глубина : 24 бит
    Метод сжатия : Без потерь/Lossy
    Размер потока : 2, 90 Гбайт (16%)
    Заголовок : Mandarin
    Язык : Chinese
    Default : Нет
    Forced : Нет
    Текст #1
    Идентификатор : 6
    Формат : UTF-8
    Идентификатор кодека : S_TEXT/UTF8
    Идентификатор кодека/Информация : UTF-8 Plain Text
    Продолжительность : 1 ч. 23 м.
    Битрейт : 0 бит/сек
    Count of elements : 14
    Размер потока : 538 байт (0%)
    Заголовок : Rus forced Смотреть с переводом от SoftBox
    Язык : Russian
    Default : Да
    Forced : Нет
    Текст #2
    Идентификатор : 7
    Формат : UTF-8
    Идентификатор кодека : S_TEXT/UTF8
    Идентификатор кодека/Информация : UTF-8 Plain Text
    Продолжительность : 1 ч. 37 м.
    Битрейт : 33 бит/сек
    Count of elements : 1100
    Размер потока : 24, 0 Кбайт (0%)
    Заголовок : Subtitle eng
    Язык : English
    Default : Нет
    Forced : Нет
    Меню
    00: 00: 00.000 : en: 00: 00: 00.000
    00: 04: 30.750 : en: 00: 04: 30.750
    00: 08: 05.958 : en: 00: 08: 05.958
    00: 17: 09.083 : en: 00: 17: 09.083
    00: 22: 08.625 : en: 00: 22: 08.625
    00: 26: 25.250 : en: 00: 26: 25.250
    00: 30: 49.667 : en: 00: 30: 49.667
    00: 34: 34.667 : en: 00: 34: 34.667
    00: 41: 04.208 : en: 00: 41: 04.208
    00: 45: 10.833 : en: 00: 45: 10.833
    00: 49: 47.917 : en: 00: 49: 47.917
    00: 57: 00.792 : en: 00: 57: 00.792
    01: 01: 53.542 : en: 01: 01: 53.542
    01: 06: 17.542 : en: 01: 06: 17.542
    01: 10: 50.542 : en: 01: 10: 50.542
    01: 14: 25.000 : en: 01: 14: 25.000
    01: 18: 29.458 : en: 01: 18: 29.458
    01: 24: 22.875 : en: 01: 24: 22.875
    01: 29: 15.417 : en: 01: 29: 15.417
    01: 36: 29.292 : en: 01: 36: 29.292
    Скриншоты

    Залил: Zha-4k-e

    Онлайн видео Охотники за головами


    Размер скачиваемого торрента: 18.52 GB (19890775340 Bytes)

    Охотники за головами/Bounty Hunters (2016) BDRemux 1080p | L, L2
    загрузка...
    Рейтинг →
     (голосов: 1, оценка 3/5, голосовать можно 1 раз )

    Другие торренты по теме:

  • Охотники за головами / Headhunters / Hodejegerne (2011) HDRip от Youtracker | D торрент скачать бесплатно
  • Кодекс силы / Охотники за головами 2 / Hardball / Bounty hunters 2: Hardball (1997) DVDRip скачать через торрент бесплатно
  • Охотники за головами / Hodejegerne (2011) BDRip 720p от LEONARDO and Scarabey | Лицензия торрент скачать бесплатно
  • Охотники за головами / Hodejegerne / Headhunters (2011) BDRip-AVC | D, P1 скачать через торрент бесплатно
  • Охотники за головами (2014) WEB-DL 1080p от MediaClub торрент скачать бесплатно
  • Охотники за головами (2014) SATRip торрент скачать бесплатно
  • Охотники за головами / Hodejegerne / Headhunters (2011) BDRip-AVC от HELLYWOOD | Лицензия скачать через торрент бесплатно
  • Охотники за головами (2014) WEB-DLRip-AVC скачать через торрент бесплатно


    • Комментарии (0):

      Информация

      Информация

        Посетители, находящиеся в группе Гости, не могут оставлять комментарии в данной новости.

        ↓ Меню



        ↓ Опрос

        А Вы добавили сайт в закладки?
        Да
        Не


        Top 10 за неделю (Фильмы)