.
Авторизация | Регистрация
Хочешь лучшие торренты? Добавь свой email!
Добавить
» » Приключения капитана Фабиана / Adventures of Captain Fabian (1951) DVD-9 от NovaLan | P торрент скачать бесплатно




    Приключения капитана Фабиана / Adventures of Captain Fabian (1951) DVD-9 от NovaLan | P торрент скачать бесплатно

    Опубликовал: Админ | Дата: 4-11-2016, 05:00 | Просмотров: 47



    Детально о кино
    Русское название: Приключения капитана Фабиана
    Русское название в мировом прокате: Adventures of Captain Fabian
    Создали в: 1951
    Категория жанра: Приключения
    Главный режиссер: Уильям Маршалл (I), Роберт Флори

    Актеры
    Эррол Флинн, Винсент Прайс, Агнес Мурхед, Виктор Франсен, Мишлин Прель, Джим Жеральд, Элена Мансон, Говард Вернон, Роже Блен, Валентина Камакс
    Описание: Новый Орлеан 1860 год. Молодая креолка Лея Мариотте, чью мать когда-то повесили, служит у богатой знати Нового Орлеана, которые ужасно обращаются со слугами. В Лее бушует злость и жажда мести. В это время в Орлеан возвращается молодой капитан Майкл Фабиан, который тоже жаждет отомстить за смерть отца и забрать свои деньги у мошенников. При печальных обстоятельствах Лея встречает морского капитана Фабиана и безумно в него влюбляется, но не всё так просто...
    Снималось в: США, Франция
    Киностудия: Les Films Corona, Republic Pictures, Silver Films
    Время просмотра: 01: 39: 58
    Перевод текста: Профессиональный одноголосый
    Файл
    Кодек для видео: MPEG-2
    Качество фильма: DVD-9
    Информация о видео: MPEG2, NTSC 16: 9 (720x480@853x480) VBR, 23, 976 кадра/сек
    Информация о звуке: Русский/Английский DD 2.0 (192 Kbps)

    Меню
    DVDInfo

    Title: Локальный диск
    Size: 5.52 Gb ( 5 788 918 KBytes ) - DVD-9
    Enabled regions: 1, 2, 3, 4, 5, 6, 7, 8
    VTS_01 :
    Play Length: 01: 39: 58
    Video: NTSC 4: 3 (704x480) VBR
    Audio:
    Russian (Dolby AC3, 2 ch)
    English (Dolby AC3, 2 ch)
    Menu Video:
    NTSC 4: 3 (704x480) VBR
    Menu English Language Unit :
    Root Menu
    MediaInfo

    Общее
    Полное имя : D: 1АААПриключения капитана ФабианаVIDEO_TSVTS_01_1.VOB
    Формат : MPEG-PS
    Размер файла : 1000 Мбайт
    Продолжительность : 17 м.
    Режим общего битрейта : Переменный
    Общий поток : 7817 Кбит/сек
    Видео
    Идентификатор : 224 (0xE0)
    Формат : MPEG Video
    Версия формата : Version 2
    Профиль формата : Main@Main
    Параметр BVOP формата : Да
    Параметр матрицы формата : По умолчанию
    Параметр GOP формата : M=3, N=12
    Продолжительность : 17 м.
    Вид битрейта : Переменный
    Битрейт : 7277 Кбит/сек
    Максимальный битрейт : 8816 Кбит/сек
    Ширина : 720 пикселей
    Высота : 480 пикселей
    Соотношение сторон : 4: 3
    Частота кадров : 23, 976 кадра/сек
    Стандарт вещания : NTSC
    Цветовое пространство : YUV
    Субдискретизация насыщенности : 4: 2: 0
    Битовая глубина : 8 бит
    Тип развёртки : Прогрессивная
    Порядок развёртки : 2: 3 Pulldown
    Метод сжатия : С потерями
    Бит/(Пиксели*Кадры) : 0.878
    TimeCode_FirstFrame : 00: 00: 00;00
    TimeCode_Source : Group of pictures t_head
    Размер потока : 931 Мбайт (93%)
    Аудио #1
    Идентификатор : 189 (0xBD)-128 (0x80)
    Формат : AC-3
    Формат/Информация : Audio Coding 3
    Расширение режима : CM (complete main)
    Параметр Endianness формата : Big
    Режим смешивания : DVD-Video
    Продолжительность : 17 м.
    Вид битрейта : Постоянный
    Битрейт : 192 Кбит/сек
    Каналы : 2 канала
    Расположение каналов : Front: L R
    Частота : 48, 0 КГц
    Битовая глубина : 16 бит
    Метод сжатия : С потерями
    Размер потока : 24, 6 Мбайт (2%)
    Аудио #2
    Идентификатор : 189 (0xBD)-129 (0x81)
    Формат : AC-3
    Формат/Информация : Audio Coding 3
    Расширение режима : CM (complete main)
    Параметр Endianness формата : Big
    Режим смешивания : DVD-Video
    Продолжительность : 17 м.
    Вид битрейта : Постоянный
    Битрейт : 192 Кбит/сек
    Каналы : 2 канала
    Расположение каналов : Front: L R
    Частота : 48, 0 КГц
    Битовая глубина : 16 бит
    Метод сжатия : С потерями
    Размер потока : 24, 6 Мбайт (2%)
    Меню

    Скриншоты



    Релиз: 089233
    Залил: YArl

    Онлайн видео Приключения капитана Фабиана


    Размер скачиваемого торрента: 5.52 GB (5927852032 Bytes)

    Приключения капитана Фабиана/Adventures of Captain Fabian (1951) DVD-9 от NovaLan | P
    загрузка...
    Рейтинг →
     (голосов: 1, оценка 5/5, голосовать можно 1 раз )

    Другие торренты по теме:

  • Приключения капитана Врунгеля (1976-1979) DVDRip от R.G.RealMT | КПК
  • Приключения капитана Врунгеля (1976-1979) DVDRip от R.G.RealMT
  • Путешествие и приключения капитана Гаттераса скачать через торрент бесплатно
  • Артуро Перес-Реверте - Приключения капитана Алатристе 4. Золото короля (2016) MP3
  • Артуро Перес-Реверте - Приключения капитана Алатристе 2. Чистая кровь (2016) MP3
  • Артуро Перес-Реверте - Приключения капитана Алатристе 7. Мост убийц (2016) MP3
  • Даниэль Дефо - Жизнь и пиратские приключения славного капитана Сингльтона (1993) DJVU


    • Комментарии (0):

      Информация

      Информация

        Посетители, находящиеся в группе Гости, не могут оставлять комментарии в данной новости.

        ↓ Меню



        ↓ Опрос

        А Вы добавили сайт в закладки?
        Да
        Не


        Top 10 за месяц (Фильмы)