.
Авторизация | Регистрация




Табу / Tabu (2012) BDRemux | P скачать торрент бесплатно

Опубликовал: Админ | Дата: 5-11-2016, 05:00 | Просмотров: 14



Детально о кино
Русское название: Табу
Русское название в мировом прокате: Tabu
Создали в: 2012
Категория жанра: драма
Главный режиссер: Мигель Гомеш/Miguel Gomes

Актеры
Тереза Мадруга/Teresa Madruga, Лаура Соверал/Laura Soveral, Ана Морейра/Ana Moreira, Энрике Эспирито Санто/Henrique Esp?rito Santo, Карлотту Котта/Carloto Cotta, Изабель Муньос Кардосо/Isabel Mu?oz Cardoso, Иво Мюллер/Ivo M?ller, Мануэль Мескита/Manuel Mesquita

Сюжет фильма

Умирая, эксцентричная старушка просит двух соседок разыскать некоего мужчину. Женщины находят незнакомца, который рассказывает им трогательную историю их любви в колониальной Африке и их преступления, после которого они больше никогда не виделись.

Снималось в: Португалия, Германия, Бразилия, Франция
Киностудия: O Som e a F?ria, Komplizen Film, Gullane Filmes
Время просмотра: 01: 58: 03.584
Перевод текста: Профессиональный (многоголосый, закадровый)R5
Файл
Кодек для видео: h.264
Качество фильма: BDRemuxИсходник BD25 New Wave Films
Информация о видео: 1920x1080 (16: 9), 24.000 fps, AVC, ~17.4 Mbps, 0.350 bits/pixel
Информация о звуке:
Русский, 48.0 KHz, AC3, 6 ch, 384 Kbps
Португальский, 48.0 KHz, DTS-HD MA, 6 ch, 16bit, 1561 Kbps/1510 Kbps
Субтитры:
Английские, PGS
Русские, SRT(UTF-8)daft-digger
Исходный Blu Ray
http://www.blu-ray.com/movies/Tabu-Blu-ray/56926/
MI
Общее
Уникальный идентификатор : 225415265491068373828477164454576198379 (0xA99566A62CB94C53B610669BD90512EB)
Полное имя : D: FILMSTabu.2012.BDRemux.mkv
Формат : Matroska
Версия формата : Version 4/Version 2
Размер файла : 16, 3 Гбайт
Продолжительность : 1 ч. 58 м.
Режим общего битрейта : Переменный
Общий поток : 19, 8 Мбит/сек
Дата кодирования : UTC 2016-11-03 17: 55: 23
Программа кодирования : mkvmerge v9.5.0 (;Quiet Fire;) 64bit
Библиотека кодирования : libebml v1.3.4 + libmatroska v1.4.5
Видео
Идентификатор : 1
Формат : AVC
Формат/Информация : Advanced Video Codec
Профиль формата : High@L4.1
Параметр CABAC формата : Да
Параметр ReFrames формата : 4 кадра
Параметр GOP формата : M=3, N=24
Идентификатор кодека : V_MPEG4/ISO/AVC
Продолжительность : 1 ч. 58 м.
Вид битрейта : Переменный
Битрейт : 17, 5 Мбит/сек
Максимальный битрейт : 35, 0 Мбит/сек
Ширина : 1920 пикселей
Высота : 1080 пикселей
Соотношение сторон : 16: 9
Режим частоты кадров : Постоянный
Частота кадров : 24, 000 кадра/сек
Стандарт вещания : NTSC
Цветовое пространство : YUV
Субдискретизация насыщенности : 4: 2: 0
Битовая глубина : 8 бит
Тип развёртки : Прогрессивная
Бит/(Пиксели*Кадры) : 0.351
Размер потока : 14, 4 Гбайт (89%)
Default : Нет
Forced : Нет
Цветовой диапазон : Limited
Основные цвета : BT.709
Характеристики трансфера : BT.709
Коэффициенты матрицы : BT.709
Аудио #1
Идентификатор : 2
Формат : AC-3
Формат/Информация : Audio Coding 3
Расширение режима : CM (complete main)
Параметр Endianness формата : Big
Идентификатор кодека : A_AC3
Продолжительность : 1 ч. 58 м.
Вид битрейта : Постоянный
Битрейт : 384 Кбит/сек
Каналы : 6 каналов
Расположение каналов : Front: L C R, Side: L R, LFE
Частота : 48, 0 КГц
Частота кадров : 31, 250 кадров/сек (1536 spf)
Метод сжатия : С потерями
Размер потока : 324 Мбайт (2%)
Заголовок : R5
Язык : Russian
Default : Да
Forced : Нет
Аудио #2
Идентификатор : 3
Формат : DTS
Формат/Информация : Digital Theater Systems
Профиль формата : MA/Core
Режим : 16
Параметр Endianness формата : Big
Идентификатор кодека : A_DTS
Продолжительность : 1 ч. 58 м.
Вид битрейта : Переменный/Постоянный
Битрейт : 1869 Кбит/сек/1509 Кбит/сек
Каналы : 6 каналов
Расположение каналов : Front: L C R, Side: L R, LFE
Частота : 48, 0 КГц
Частота кадров : 93, 750 кадра/сек (512 spf)
Битовая глубина : 16 бит
Метод сжатия : Без потерь/Lossy
Размер потока : 1, 54 Гбайт (9%)
Язык : Portuguese
Default : Нет
Forced : Нет
Текст #1
Идентификатор : 4
Формат : PGS
Режим смешивания : zlib
Идентификатор кодека : S_HDMV/PGS
Идентификатор кодека/Информация : Picture based subtitle format used on BDs/HD-DVDs
Продолжительность : 1 ч. 52 м.
Битрейт : 8797 бит/сек
Count of elements : 1638
Размер потока : 7, 05 Мбайт (0%)
Язык : English
Default : Нет
Forced : Нет
Текст #2
Идентификатор : 5
Формат : UTF-8
Идентификатор кодека : S_TEXT/UTF8
Идентификатор кодека/Информация : UTF-8 Plain Text
Продолжительность : 1 ч. 52 м.
Битрейт : 68 бит/сек
Count of elements : 879
Размер потока : 56, 2 Кбайт (0%)
Заголовок : daft-digger
Язык : Russian
Default : Нет
Forced : Нет
Меню
00: 00: 00.000 : en: 00: 00: 00.000
00: 06: 14.542 : en: 00: 06: 14.542
00: 13: 46.708 : en: 00: 13: 46.708
00: 20: 44.292 : en: 00: 20: 44.292
00: 26: 12.125 : en: 00: 26: 12.125
00: 32: 41.500 : en: 00: 32: 41.500
00: 40: 40.000 : en: 00: 40: 40.000
00: 45: 21.667 : en: 00: 45: 21.667
00: 51: 59.292 : en: 00: 51: 59.292
00: 59: 27.625 : en: 00: 59: 27.625
01: 06: 04.500 : en: 01: 06: 04.500
01: 12: 08.333 : en: 01: 12: 08.333
01: 18: 09.500 : en: 01: 18: 09.500
01: 25: 06.625 : en: 01: 25: 06.625
01: 31: 39.750 : en: 01: 31: 39.750
01: 37: 29.500 : en: 01: 37: 29.500
01: 43: 53.417 : en: 01: 43: 53.417
01: 51: 00.000 : en: 01: 51: 00.000

Скриншоты

Релиз подготовил: Temperest
Залил: Temperest
Размер скачиваемого торрента: 16.29 GB (17492862925 Bytes)

Табу/Tabu (2012) BDRemux | P
загрузка...
Рейтинг →
 (голосов: 1, оценка 5/5, голосовать можно 1 раз )

Другие торренты по теме:

  • Табу / Taboo (2016) HDTVRip 720p | OmskBird скачать торрент бесплатно
  • Табу / Taboo (2017) HDTVRip 1080p | AlexFilm скачать торрент бесплатно
  • Табу / Taboo (2017) HDTVRip | IdeaFilm скачать торрент бесплатно
  • Табу / Taboo (2017) HDTVRip 1080p | IdeaFilm скачать торрент бесплатно
  • Табу / Taboo (2017) HDTVRip от qqss44 | LostFilm скачать торрент бесплатно
  • Табу / Taboo (2017) WEB-DLRip от Scarabey | LostFilm скачать торрент бесплатно
  • Табу / Taboo (2017) HDTV 720p | NEON Studio скачать торрент бесплатно
  • Табу / Taboo (2017) WEB-DL 1080p | SDI Media скачать торрент бесплатно


    • Комментарии (0):

      Информация

      Информация

        Посетители, находящиеся в группе Гости, не могут оставлять комментарии в данной новости.

        ↓ Меню



        ↓ Опрос

        А Вы добавили сайт в закладки?
        Да
        Не


        Top 10 за неделю (Фильмы)