.
Авторизация | Регистрация
» » Бездельник / Slacker (1982) BDRip | L1 скачать торрент бесплатно




    Бездельник / Slacker (1982) BDRip | L1 скачать торрент бесплатно

    Опубликовал: Админ | Дата: 5-11-2016, 05:00 | Просмотров: 10


    Бездельник/Slacker

    Снималось в: США
    Категория жанра: комедия, драма
    Создали в: 1991
    Время просмотра: 01: 40: 43
    Перевод текста: Любительский одноголосый закадровый | Мафиозий Донецкий
    Субтитры подготовлены: русские, английские
    Оригинальная аудиодорожка: нет
    Главный режиссер: Ричард Линклейтер/Richard Linklater

    Актеры
    Ричард Линклейтер (чувак в такси), Руди Баскес, Джин Кафеин, Джен Хоки, Стивен Хоки, Марк Джеймс, Сэмюэл Дитерт, Боб Бойд, Терренс Кирк, Кейт МакКормак
    Описание: Бессюжетный фильм об одном дне из жизни богемы, бездельников и невписавшихся в систему в городе Остине, штат Техас. За полтора часа перед нами проходит паноптикум персонажей, и ни на одном из них камера не задерживается более чем на 3 минуты: мечтательный путешественник, человек, помешанный на НЛО, конспиролог-любитель, пожилой анархист, предлагающий дружбу грабителю в собственном доме, коллекционер старых телевизоров, и странная то ли девочка, то ли мальчик, продающая на улице гинекологический мазок Мадонны.

    Качество фильма видео: BDRip
    Тип видео видео: AVI
    Информация о видео: MPEG4, XviD, 720x544 (4: 3), 23.976 fps, 1 859 Kbps (0.198 bit/pixel)
    Информация о звуке: AC-3, 48.0 KHz, 2 ch, 192 Kbps, CBR
    Тип видео субтитров: softsub (SRT)
    MediaInfo

    Общее
    Формат : AVI
    Формат/Информация : Audio Video Interleave
    Размер файла : 1, 45 Гбайт
    Продолжительность : 1 ч. 40 м.
    Общий поток : 2060 Кбит/сек
    Программа кодирования : VirtualDubMod 1.5.10.2 (build 2542/release)
    Библиотека кодирования : VirtualDubMod build 2542/release
    Видео
    Идентификатор : 0
    Формат : MPEG-4 Visual
    Профиль формата : Advanced Simple@L5
    Параметр BVOP формата : 2
    Параметр QPel формата : Нет
    Параметр GMC формата : Без точки перехода
    Параметр матрицы формата : Default (H.263)
    Идентификатор кодека : XVID
    Идентификатор кодека/Подсказка : XviD
    Продолжительность : 1 ч. 40 м.
    Битрейт : 1859 Кбит/сек
    Ширина : 720 пикселей
    Высота : 544 пикселя
    Соотношение сторон : 4: 3
    Частота кадров : 23, 976 (24000/1001) кадра/сек
    Цветовое пространство : YUV
    Субдискретизация насыщенности : 4: 2: 0
    Битовая глубина : 8 бит
    Тип развёртки : Прогрессивная
    Метод сжатия : С потерями
    Бит/(Пиксели*Кадры) : 0.198
    Размер потока : 1, 31 Гбайт (90%)
    Библиотека кодирования : XviD 67
    Аудио
    Идентификатор : 1
    Формат : AC-3
    Формат/Информация : Audio Coding 3
    Расширение режима : CM (complete main)
    Параметр Endianness формата : Big
    Идентификатор кодека : 2000
    Продолжительность : 1 ч. 40 м.
    Вид битрейта : Постоянный
    Битрейт : 192 Кбит/сек
    Каналы : 2 канала
    Расположение каналов : Front: L R
    Частота : 48, 0 КГц
    Частота кадров : 31, 250 кадров/сек (1536 spf)
    Метод сжатия : С потерями
    Размер потока : 138 Мбайт (9%)
    Выравнивание : Разделение по промежуткам
    Продолжительность промежутка : 42 мс. (1, 00 видеокадр)
    Время предзагрузки промежутка : 500 мс.
    Общее
    Формат : SubRip
    Размер файла : 124 Кбайт
    Текст
    Формат : SubRip
    Метод сжатия : Без потерь
    Общее
    Формат : SubRip
    Размер файла : 161 Кбайт
    Текст
    Формат : SubRip
    Метод сжатия : Без потерь
    Скриншот c названием фильма


    Скриншоты



    Залил: nbdjod

    Онлайн видео Бездельник


    Размер скачиваемого торрента: 1.45 GB (1556871776 Bytes)

    Бездельник/Slacker (1982) BDRip | L1
    загрузка...
    Рейтинг →
     (голосов: 1, оценка 4/5, голосовать можно 1 раз )

    Другие торренты по теме:

  • Бездельник / Slacker (1982) BDRemux 1080p | L1 скачать торрент бесплатно


    • Комментарии (0):

      Информация

      Информация

        Посетители, находящиеся в группе Гости, не могут оставлять комментарии в данной новости.

        ↓ Меню



        ↓ Опрос

        А Вы добавили сайт в закладки?
        Да
        Не


        Top 10 за неделю (Фильмы)