.
Авторизация | Регистрация
Хочешь лучшие торренты? Добавь свой email!
Добавить
» » Бездельник / Slacker (1982) BDRemux 1080p | L1 торрент скачать бесплатно




    Бездельник / Slacker (1982) BDRemux 1080p | L1 торрент скачать бесплатно

    Опубликовал: Админ | Дата: 5-11-2016, 05:00 | Просмотров: 17


    Бездельник/Slacker

    Снималось в: США
    Категория жанра: комедия, драма
    Создали в: 1991
    Время просмотра: 01: 40: 43
    Перевод текста: Любительский одноголосый закадровый | Мафиозий Донецкий
    Субтитры подготовлены: русские, английские
    Оригинальная аудиодорожка: английский
    Главный режиссер: Ричард Линклейтер/Richard Linklater

    Актеры
    Ричард Линклейтер (чувак в такси), Руди Баскес, Джин Кафеин, Джен Хоки, Стивен Хоки, Марк Джеймс, Сэмюэл Дитерт, Боб Бойд, Терренс Кирк, Кейт МакКормак
    Описание: Бессюжетный фильм об одном дне из жизни богемы, бездельников и невписавшихся в систему в городе Остине, штат Техас. За полтора часа перед нами проходит паноптикум персонажей, и ни на одном из них камера не задерживается более чем на 3 минуты: мечтательный путешественник, человек, помешанный на НЛО, конспиролог-любитель, пожилой анархист, предлагающий дружбу грабителю в собственном доме, коллекционер старых телевизоров, и странная то ли девочка, то ли мальчик, продающая на улице гинекологический мазок Мадонны.

    Качество фильма видео: BDRemux 1080p
    Тип видео видео: MKV
    Информация о видео: AVC/1920x1080/16: 9/23.976fps/23900Kbps/High@L4.1
    Информация о звуке 1: AC3/48.0 KHz/2ch./192kbps/Rus/VO/Мафиозий Донецкий
    Информация о звуке 2: DTS-HD MA/48.0 KHz/2ch/2093kbps/24bit (DTS Core 48.0 KHz/2ch/1509kbps/24bit) Eng
    Тип видео субтитров: softsub (SRT)
    MediaInfo

    Общее
    Уникальный идентификатор : 207480351210739441084912182523978061938 (0x9C17431ABF30C49FA0D64EC771781872)
    Формат : Matroska
    Версия формата : Version 4/Version 2
    Размер файла : 18, 4 Гбайт
    Продолжительность : 1 ч. 40 м.
    Режим общего битрейта : Переменный
    Общий поток : 26, 2 Мбит/сек
    Название фильма : Slacker.1991.BDRemux.1080p_by_vedigo
    Дата кодирования : UTC 2016-10-17 00: 44: 44
    Программа кодирования : mkvmerge v9.5.0 (;Quiet Fire;) 64bit
    Библиотека кодирования : libebml v1.3.4 + libmatroska v1.4.5
    Видео
    Идентификатор : 1
    Формат : AVC
    Формат/Информация : Advanced Video Codec
    Профиль формата : High@L4.1
    Параметр CABAC формата : Да
    Параметр ReFrames формата : 4 кадра
    Параметр GOP формата : M=3, N=12
    Идентификатор кодека : V_MPEG4/ISO/AVC
    Продолжительность : 1 ч. 40 м.
    Вид битрейта : Переменный
    Битрейт : 23, 9 Мбит/сек
    Максимальный битрейт : 37, 0 Мбит/сек
    Ширина : 1920 пикселей
    Высота : 1080 пикселей
    Соотношение сторон : 16: 9
    Режим частоты кадров : Постоянный
    Частота кадров : 23, 976 (24000/1001) кадра/сек
    Цветовое пространство : YUV
    Субдискретизация насыщенности : 4: 2: 0
    Битовая глубина : 8 бит
    Тип развёртки : Прогрессивная
    Бит/(Пиксели*Кадры) : 0.480
    Размер потока : 16, 8 Гбайт (91%)
    Заголовок : Slacker.1991.BDRemux.1080p_by_vedigo
    Default : Да
    Forced : Нет
    Аудио #1
    Идентификатор : 2
    Формат : AC-3
    Формат/Информация : Audio Coding 3
    Расширение режима : CM (complete main)
    Параметр Endianness формата : Big
    Идентификатор кодека : A_AC3
    Продолжительность : 1 ч. 40 м.
    Вид битрейта : Постоянный
    Битрейт : 192 Кбит/сек
    Каналы : 2 канала
    Расположение каналов : Front: L R
    Частота : 48, 0 КГц
    Частота кадров : 31, 250 кадров/сек (1536 spf)
    Метод сжатия : С потерями
    Размер потока : 138 Мбайт (1%)
    Заголовок : VO @ Мафиозий Донецкий
    Язык : Russian
    Default : Да
    Forced : Нет
    Аудио #2
    Идентификатор : 3
    Формат : DTS
    Формат/Информация : Digital Theater Systems
    Профиль формата : MA/Core
    Режим : 16
    Параметр Endianness формата : Big
    Идентификатор кодека : A_DTS
    Продолжительность : 1 ч. 40 м.
    Вид битрейта : Переменный/Постоянный
    Битрейт : 2093 Кбит/сек/1509 Кбит/сек
    Каналы : 2 канала
    Расположение каналов : /Front: L R
    Частота : 48, 0 КГц
    Частота кадров : 93, 750 кадра/сек (512 spf)
    Битовая глубина : 24 бит
    Метод сжатия : Без потерь/Lossy
    Размер потока : 1, 47 Гбайт (8%)
    Заголовок : Original
    Язык : English
    Default : Нет
    Forced : Нет
    Текст #1
    Идентификатор : 4
    Формат : UTF-8
    Идентификатор кодека : S_TEXT/UTF8
    Идентификатор кодека/Информация : UTF-8 Plain Text
    Продолжительность : 1 ч. 33 м.
    Битрейт : 133 бит/сек
    Count of elements : 1747
    Размер потока : 91, 8 Кбайт (0%)
    Заголовок : Subtitle rus
    Язык : Russian
    Default : Нет
    Forced : Нет
    Текст #2
    Идентификатор : 5
    Формат : UTF-8
    Идентификатор кодека : S_TEXT/UTF8
    Идентификатор кодека/Информация : UTF-8 Plain Text
    Продолжительность : 1 ч. 36 м.
    Битрейт : 92 бит/сек
    Count of elements : 1489
    Размер потока : 65, 4 Кбайт (0%)
    Заголовок : Subtitle eng
    Язык : English
    Default : Нет
    Forced : Нет
    Меню
    00: 00: 00.000 : en: 00: 00: 00.000
    00: 05: 10.018 : en: 00: 05: 10.018
    00: 12: 01.429 : en: 00: 12: 01.429
    00: 13: 55.501 : en: 00: 13: 55.501
    00: 19: 15.196 : en: 00: 19: 15.196
    00: 21: 41.842 : en: 00: 21: 41.842
    00: 24: 48.195 : en: 00: 24: 48.195
    00: 26: 10.778 : en: 00: 26: 10.778
    00: 30: 06.972 : en: 00: 30: 06.972
    00: 31: 25.550 : en: 00: 31: 25.550
    00: 33: 39.809 : en: 00: 33: 39.809
    00: 35: 34.215 : en: 00: 35: 34.215
    00: 38: 07.368 : en: 00: 38: 07.368
    00: 41: 54.929 : en: 00: 41: 54.929
    00: 44: 54.442 : en: 00: 44: 54.442
    00: 48: 53.430 : en: 00: 48: 53.430
    00: 52: 42.201 : en: 00: 52: 42.201
    00: 54: 52.372 : en: 00: 54: 52.372
    00: 57: 07.257 : en: 00: 57: 07.257
    00: 59: 08.420 : en: 00: 59: 08.420
    01: 06: 06.462 : en: 01: 06: 06.462
    01: 11: 43.591 : en: 01: 11: 43.591
    01: 14: 54.490 : en: 01: 14: 54.490
    01: 17: 35.276 : en: 01: 17: 35.276
    01: 20: 30.034 : en: 01: 20: 30.034
    01: 25: 18.363 : en: 01: 25: 18.363
    01: 28: 28.470 : en: 01: 28: 28.470
    01: 31: 02.666 : en: 01: 31: 02.666
    01: 32: 42.182 : en: 01: 32: 42.182
    01: 33: 48.289 : en: 01: 33: 48.289
    01: 34: 58.401 : en: 01: 34: 58.401
    01: 37: 37.852 : en: 01: 37: 37.852
    Скриншоты



    Залил: nbdjod

    Онлайн видео Бездельник


    Размер скачиваемого торрента: 18.41 GB (19762280139 Bytes)

    Бездельник/Slacker (1982) BDRemux 1080p | L1
    загрузка...
    Рейтинг →
     (голосов: 1, оценка 5/5, голосовать можно 1 раз )

    Другие торренты по теме:

  • Бездельник / Slacker (1982) BDRip | L1


    • Комментарии (0):

      Информация

      Информация

        Посетители, находящиеся в группе Гости, не могут оставлять комментарии в данной новости.

        ↓ Меню



        ↓ Опрос

        А Вы добавили сайт в закладки?
        Да
        Не


        Top 10 за месяц (Фильмы)