.
Авторизация | Регистрация
» » Интуиция / Serendipity (2001) BDRemux 1080p | Р, A скачать торрент бесплатно




    Интуиция / Serendipity (2001) BDRemux 1080p | Р, A скачать торрент бесплатно

    Опубликовал: Админ | Дата: 5-11-2016, 05:00 | Просмотров: 6



    Интуиция / Serendipity
    Снималось в: США
    Создали в: Miramax Films, Simon Fields Productions, Tapestry Films
    Создали в: 2001
    Категория жанра: мелодрама, комедия
    Время просмотра: 01: 30: 58
    Главный режиссер: Питер Челсом
    Автор сценария: Марк Клейн

    Актеры
    Джон Кьюсак, Кейт Бекинсейл, Джереми Пивен, Бриджет Мойнэхэн, Юджин Леви, Лилли Лавинь, Майкл Джуарино мл., Абдул Альшавиш
    Описание: В один суматошный зимний день, посреди нью-йоркской толпы, Джонатан встретил Сару. Два незнакомых человека в объятом предновогодней лихорадкой городе обнаруживают, что их неодолимо тянет друг к другу. И они решают проверить судьбу: он пишет свой телефон на банкноте, она — в книге. Купюру разменивают, а книгу сдают букинисту. Джонатан и Сара уверены, что скоро увидятся вновь. Но коварная судьба распорядилась по-своему...

    Перевод текста: 3х Профессиональный (многоголосый, закадровый) + 3х Авторский (одноголосый)
    Субтитры: русские -два вида, английские -три вида
    Качество фильма: BDRemux 1080p
    Тип видео: МКV
    Информация о видео кодек: AVC
    Информация о звуке кодек: АС3 | DTS
    Информация о видео: 1920x1080 (16: 9), 23.976 fps, MPEG-4 AVC ~23.3 Мbps avg
    Информация о звуке №1: 48.0 kHz, AC3 Dolby Digital, 3/2 (L, C, R, l, r) + LFE ch, ~448 kbps | Мосфильм
    Информация о звуке №2: 48.0 kHz, AC3 Dolby Digital, 3/2 (L, C, R, l, r) + LFE ch, ~384 kbps | R1/ MVO
    Информация о звуке №3: 48.0 kHz, Digital Theater Systems Master Audio, 3/2 (L, C, R, l, r) + LFE ch, ~1983 kbps/16-bit | Карусель
    Информация о звуке №4: 48.0 kHz, Digital Theater Systems Master Audio, 3/2 (L, C, R, l, r) + LFE ch, ~1954 kbps/16-bit | Евгений Гранкин
    Информация о звуке №5: 48.0 kHz, Digital Theater Systems Master Audio, 3/2 (L, C, R, l, r) + LFE ch, ~1956 kbps/16-bit | Михаил Иванов
    Информация о звуке №6: 48.0 kHz, Digital Theater Systems Master Audio, 3/2 (L, C, R, l, r) + LFE ch, ~1983 kbps/16-bit | Юрий Сербин
    Информация о звуке №7: 48.0 kHz, Digital Theater Systems Master Audio, 3/2 (L, C, R, l, r) + LFE ch, ~1941 kbps/16-bit | ENG
    Информация о звуке №8: 48.0 kHz, AC3 Dolby Digital, 2/0 (L, R) ch, ~192 kbps | ENG/ Commentary with Director Peter Chelsom
    Тип видео субтитров: UTF-8 Plain Text
    Бюджет: $28 000 000
    Дата премьеры (мир): 13 сентября 2001
    Дата премьеры (РФ): 10 января 2002, West
    релиз на Blu-Ray: 13 ноября 2013, Кармен Видео

    BDRemux Info

    Уникальный идентификатор : 243772561585143141802432006501748200310 (0xB764E3399A035DF89A25490739C45376)
    Полное имя : Serendipity_2001г_John Paul Cusack.mkv
    Формат : Matroska
    Версия формата : Version 4/Version 2
    Размер файла : 21, 7 Гбайт
    Продолжительность : 1 ч. 30 м.
    Режим общего битрейта : Переменный
    Общий поток : 34, 2 Мбит/сек
    Дата кодирования : UTC 2016-11-01 18: 19: 01
    Программа кодирования : mkvmerge v6.9.1 (;Blue Panther;) 64bit built on Apr 18 2014 18: 23: 38
    Библиотека кодирования : libebml v1.3.0 + libmatroska v1.4.1
    Видео
    Идентификатор : 1
    Формат : AVC
    Формат/Информация : Advanced Video Codec
    Профиль формата : High@L4.1
    Параметр CABAC формата : Да
    Параметр ReFrames формата : 4 кадра
    Идентификатор кодека : V_MPEG4/ISO/AVC
    Продолжительность : 1 ч. 30 м.
    Вид битрейта : Переменный
    Максимальный битрейт : 35, 0 Мбит/сек
    Ширина : 1920 пикселей
    Высота : 1080 пикселей
    Соотношение сторон : 16: 9
    Режим частоты кадров : Постоянный
    Частота кадров : 23, 976 кадра/сек
    Стандарт вещания : NTSC
    Цветовое пространство : YUV
    Субдискретизация насыщенности : 4: 2: 0
    Битовая глубина : 8 бит
    Тип развёртки : Прогрессивная
    Язык : English
    Default : Да
    Forced : Нет
    Основные цвета : BT.709
    Характеристики трансфера : BT.709
    Коэффициенты матрицы : BT.709
    Аудио #1
    Идентификатор : 2
    Формат : AC-3
    Формат/Информация : Audio Coding 3
    Расширение режима : CM (complete main)
    Параметр Endianness формата : Big
    Идентификатор кодека : A_AC3
    Продолжительность : 1 ч. 30 м.
    Вид битрейта : Постоянный
    Битрейт : 448 Кбит/сек
    Каналы : 6 каналов
    Расположение каналов : Front: L C R, Side: L R, LFE
    Частота : 48, 0 КГц
    Битовая глубина : 16 бит
    Метод сжатия : С потерями
    Размер потока : 291 Мбайт (1%)
    Заголовок : |Мосфильм_2001г|
    Язык : Russian
    Default : Да
    Forced : Нет
    Аудио #2
    Идентификатор : 3
    Формат : AC-3
    Формат/Информация : Audio Coding 3
    Расширение режима : CM (complete main)
    Параметр Endianness формата : Big
    Идентификатор кодека : A_AC3
    Продолжительность : 1 ч. 30 м.
    Вид битрейта : Постоянный
    Битрейт : 384 Кбит/сек
    Каналы : 6 каналов
    Расположение каналов : Front: L C R, Side: L R, LFE
    Частота : 48, 0 КГц
    Битовая глубина : 16 бит
    Метод сжатия : С потерями
    Размер потока : 250 Мбайт (1%)
    Заголовок : |MVO, R1|
    Язык : Russian
    Default : Нет
    Forced : Нет
    Аудио #3
    Идентификатор : 4
    Формат : DTS
    Формат/Информация : Digital Theater Systems
    Профиль формата : MA/Core
    Режим : 16
    Параметр Endianness формата : Big
    Идентификатор кодека : A_DTS
    Продолжительность : 1 ч. 30 м.
    Вид битрейта : Переменный
    Битрейт : Неизвестно/1509 Кбит/сек
    Каналы : 6 каналов
    Расположение каналов : Front: L C R, Side: L R, LFE
    Частота : 48, 0 КГц
    Битовая глубина : 16 бит
    Метод сжатия : Без потерь/Lossy
    Заголовок : |MVO, Карусель|
    Язык : Russian
    Default : Нет
    Forced : Нет
    Аудио #4
    Идентификатор : 5
    Формат : DTS
    Формат/Информация : Digital Theater Systems
    Профиль формата : MA/Core
    Режим : 16
    Параметр Endianness формата : Big
    Идентификатор кодека : A_DTS
    Продолжительность : 1 ч. 30 м.
    Вид битрейта : Переменный
    Битрейт : Неизвестно/1509 Кбит/сек
    Каналы : 6 каналов
    Расположение каналов : Front: L C R, Side: L R, LFE
    Частота : 48, 0 КГц
    Битовая глубина : 16 бит
    Метод сжатия : Без потерь/Lossy
    Заголовок : |Гранкин, Евгений Викторович|
    Язык : Russian
    Default : Нет
    Forced : Нет
    Аудио #5
    Идентификатор : 6
    Формат : DTS
    Формат/Информация : Digital Theater Systems
    Профиль формата : MA/Core
    Режим : 16
    Параметр Endianness формата : Big
    Идентификатор кодека : A_DTS
    Продолжительность : 1 ч. 30 м.
    Вид битрейта : Переменный
    Битрейт : Неизвестно/1509 Кбит/сек
    Каналы : 6 каналов
    Расположение каналов : Front: L C R, Side: L R, LFE
    Частота : 48, 0 КГц
    Битовая глубина : 16 бит
    Метод сжатия : Без потерь/Lossy
    Заголовок : |Иванов, Михаил Николаевич|
    Язык : Russian
    Default : Нет
    Forced : Нет
    Аудио #6
    Идентификатор : 7
    Формат : DTS
    Формат/Информация : Digital Theater Systems
    Профиль формата : MA/Core
    Режим : 16
    Параметр Endianness формата : Big
    Идентификатор кодека : A_DTS
    Продолжительность : 1 ч. 30 м.
    Вид битрейта : Переменный
    Битрейт : Неизвестно/1509 Кбит/сек
    Каналы : 6 каналов
    Расположение каналов : Front: L C R, Side: L R, LFE
    Частота : 48, 0 КГц
    Битовая глубина : 16 бит
    Метод сжатия : Без потерь/Lossy
    Заголовок : |Сербин, Юрий Владимирович|
    Язык : Russian
    Default : Нет
    Forced : Нет
    Аудио #7
    Идентификатор : 8
    Формат : DTS
    Формат/Информация : Digital Theater Systems
    Профиль формата : MA/Core
    Режим : 16
    Параметр Endianness формата : Big
    Идентификатор кодека : A_DTS
    Продолжительность : 1 ч. 30 м.
    Вид битрейта : Переменный
    Битрейт : Неизвестно/1509 Кбит/сек
    Каналы : 6 каналов
    Расположение каналов : Front: L C R, Side: L R, LFE
    Частота : 48, 0 КГц
    Битовая глубина : 16 бит
    Метод сжатия : Без потерь/Lossy
    Заголовок : |original|
    Язык : English
    Default : Нет
    Forced : Нет
    Аудио #8
    Идентификатор : 9
    Формат : AC-3
    Формат/Информация : Audio Coding 3
    Расширение режима : CM (complete main)
    Параметр Endianness формата : Big
    Идентификатор кодека : A_AC3
    Продолжительность : 1 ч. 30 м.
    Вид битрейта : Постоянный
    Битрейт : 192 Кбит/сек
    Каналы : 2 канала
    Расположение каналов : Front: L R
    Частота : 48, 0 КГц
    Битовая глубина : 16 бит
    Метод сжатия : С потерями
    Размер потока : 125 Мбайт (1%)
    Заголовок : |commentary with Director Peter Chelsom|
    Язык : English
    Default : Нет
    Forced : Нет
    Текст #1
    Идентификатор : 10
    Формат : UTF-8
    Идентификатор кодека : S_TEXT/UTF8
    Идентификатор кодека/Информация : UTF-8 Plain Text
    Заголовок : licence_full
    Язык : Russian
    Default : Нет
    Forced : Нет
    Текст #2
    Идентификатор : 11
    Формат : UTF-8
    Идентификатор кодека : S_TEXT/UTF8
    Идентификатор кодека/Информация : UTF-8 Plain Text
    Заголовок : unknown author; with songs
    Язык : Russian
    Default : Нет
    Forced : Нет
    Текст #3
    Идентификатор : 12
    Формат : UTF-8
    Идентификатор кодека : S_TEXT/UTF8
    Идентификатор кодека/Информация : UTF-8 Plain Text
    Заголовок : full
    Язык : English
    Default : Нет
    Forced : Нет
    Текст #4
    Идентификатор : 13
    Формат : UTF-8
    Идентификатор кодека : S_TEXT/UTF8
    Идентификатор кодека/Информация : UTF-8 Plain Text
    Заголовок : text+songs
    Язык : English
    Default : Нет
    Forced : Нет
    Текст #5
    Идентификатор : 14
    Формат : UTF-8
    Идентификатор кодека : S_TEXT/UTF8
    Идентификатор кодека/Информация : UTF-8 Plain Text
    Заголовок : SDH_full
    Язык : English
    Default : Нет
    Forced : Нет
    Меню
    00: 00: 00.000 : en: 1. Opening Credits: A Fortunate Accident
    00: 08: 37.350 : en: 2. Astrological Freckles
    00: 12: 00.762 : en: 3. Forwarding Fate
    00: 17: 52.655 : en: 4. A Toast to Soulmates
    00: 22: 34.687 : en: 5. Magical Elements
    00: 26: 37.221 : en: 6. Searching for Sara
    00: 32: 18.186 : en: 7. Mr. Good-Enough-for-Right-Now
    00: 36: 08.958 : en: 8. Good Salesmanship
    00: 39: 24.904 : en: 9. One Last Fling
    00: 42: 46.272 : en: 10. Tracking Down Destiny
    00: 49: 38.100 : en: 11. Signs and Clues
    00: 59: 31.026 : en: 12. The Groom;s Gift
    01: 07: 54.570 : en: 13. Everything Happens for a Reason
    01: 11: 50.181 : en: 14. Is It Over?
    01: 16: 14.278 : en: 15. An Exquisite, Sublime Plan
    01: 25: 38.425 : en: 16. End Credits
    Скриншоты

    Залил: Zha-4k-e

    Онлайн видео Интуиция


    Размер скачиваемого торрента: 21.73 GB (23329570562 Bytes)

    Интуиция/Serendipity (2001) BDRemux 1080p | Р, A
    загрузка...
    Рейтинг →
     (голосов: 1, оценка 5/5, голосовать можно 1 раз )

    Другие торренты по теме:

  • Интуиция / Serendipity (2001) BDRip 1080p торрент скачать бесплатно
  • Интуиция / Serendipity (2001) BDRip-AVC от Rulya74 торрент скачать бесплатно
  • Интуиция / Serendipity (2001) BDRip 720p от New-Team | D, P торрент скачать бесплатно
  • Интуиция / Serendipity (2001) HDRip от Fox 2015 | КПК | Лицензия скачать торрент бесплатно
  • Интуиция / Serendipity (2001) BDRip 1080p от NNNB | D, P, A скачать торрент бесплатно


    • Комментарии (0):

      Информация

      Информация

        Посетители, находящиеся в группе Гости, не могут оставлять комментарии в данной новости.

        ↓ Меню



        ↓ Опрос

        А Вы добавили сайт в закладки?
        Да
        Не


        Top 10 за неделю (Фильмы)