.
Авторизация | Регистрация
Хочешь лучшие торренты? Добавь свой email!
Добавить
» » Холостяк Гари / Gary Unmarried (2008-2010) DVDRip | Р торрент скачать бесплатно




    Холостяк Гари / Gary Unmarried (2008-2010) DVDRip | Р торрент скачать бесплатно

    Опубликовал: Админ | Дата: 5-11-2016, 05:02 | Просмотров: 47



    Холостяк Гари / Одинокий Гари / Gary Unmarried
    Снималось в: США
    Создали в: ABC Studios, CBS Paramount Network Television
    Создали в: 2008-2010
    Сезоны: 1-2
    Категория жанра: комедия
    Время просмотра: 37х ~00: 22: 00
    Главный режиссеры: Джеймс Берроуз, Тед Уасс
    Авторы сценария: Эд Йеджер, Билл Дэйли, Айра Унгерилидер

    Актеры
    Джей Мор, Пола Маршалл, Райан Малгарини, Кэтрин Ньютон, Аль Адригал, Кигэн-Майкл Ки, Брук Д’Орсей, Эд Бегли мл., Джейми Кинг
    Описание: История о Гари Барнсе, недавно разведенном маляре-подрядчике, и его бывшей жене Эллисон. После 15 лет брака они пытаются пережить катастрофический развод и начать новые отношения. Он — весёлый папа, она — строгая мать. Они вместе опекают двоих детей: Луизу, политкорректную и обеспокоенную проблемами экологии одиннадцатилетку, и Тома, 14-летнего подростка, который смущается в присутствии девушек. Очаровательный и остроумный Гари ни с кем не встречался после развода, но потом всё же находит себе девушку, Ванессу. Он боится сказать об этом Эллисон, ведь это не соответствует написанному в книге Правила идеального развода. Но когда Эллисон сообщает, что собирается замуж за их семейного психолога, Гари понимает, что пора продолжать жить. И теперь Гари приходится балансировать в мире с бывшей женой, их двумя детьми, их психологом и его новой девушкой...

    Перевод текста: Профессиональный (многоголосый, закадровый) | FOX Life
    Субтитры: нет
    Качество фильма: DVDRip
    Тип видео: AVI
    Информация о видео кодек: XviD
    Информация о звуке кодек: МР3
    Информация о видео: 704х400/624x352 (16: 9), 23.976 fps, XviD ~1 000 kbps avg
    Информация о звуке №1: 48.0 kHz, MPEG Layer 3, 2 ch, ~128 kbps | RUS
    Информация о звуке №2: 48.0 kHz, MPEG Layer 3, 2 ch, ~128 kbps | ENG
    Дата премьеры (мир): 24 сентября 2008
    Media Info
    General
    Video
    ID : 0
    Format : MPEG-4 Visual
    Format profile : Advanced Simple@L5
    Format settings, BVOP : Yes
    Format settings, QPel : No
    Format settings, GMC : No warppoints
    Format settings, Matrix : Default (H.263)
    Muxing mode : Packed bitstream
    Codec ID : XVID
    Codec ID/Hint : XviD
    Duration : 21mn 35s
    Bit rate : 987 Kbps
    Width : 624 pixels
    Height : 352 pixels
    Display aspect ratio : 16: 9
    Frame rate : 23.976 fps
    Resolution : 8 bits
    Colorimetry : 4: 2: 0
    Scan type : Progressive
    Bits/(Pixel*Frame) : 0.187
    Stream size : 152 MiB (78%)
    Writing library : XviD 1.3.0.dev55
    Audio #1
    ID : 1
    Format : MPEG Audio
    Format version : Version 1
    Format profile : Layer 3
    Format_Settings_Mode : Joint stereo
    Format_Settings_ModeExtension : MS Stereo
    Codec ID : 55
    Codec ID/Hint : MP3
    Duration : 21mn 33s
    Bit rate mode : Constant
    Bit rate : 128 Kbps
    Channel(s) : 2 channels
    Sampling rate : 48.0 KHz
    Stream size : 19.7 MiB (10%)
    Alignment : Aligned on interleaves
    Interleave, duration : 42 ms (1.00 video frame)
    Interleave, preload duration : 504 ms
    Audio #2
    ID : 2
    Format : MPEG Audio
    Format version : Version 1
    Format profile : Layer 3
    Format_Settings_Mode : Joint stereo
    Format_Settings_ModeExtension : MS Stereo
    Codec ID : 55
    Codec ID/Hint : MP3
    Duration : 21mn 34s
    Bit rate mode : Variable
    Bit rate : 134 Kbps
    Nominal bit rate : 128 Kbps
    Channel(s) : 2 channels
    Sampling rate : 48.0 KHz
    Video delay : 360ms
    Stream size : 20.7 MiB (11%)
    Alignment : Split accross interleaves
    Interleave, duration : 24 ms (0.58 video frame)
    Interleave, preload duration : 1131 ms
    Writing library : LAME3.90.
    Encoding settings : -m j -V 4 -q 2 -lowpass 17.6 --abr 128
    Скриншоты

    Залил: Zha-4k-e

    Онлайн видео Холостяк Гари


    Размер скачиваемого торрента: 7.60 GB (8160346112 Bytes)

    Холостяк Гари/Gary Unmarried (2008-2010) DVDRip | Р
    загрузка...
    Рейтинг →
     (голосов: 1, оценка 3/5, голосовать можно 1 раз )

    Другие торренты по теме:

  • Женатый холостяк / Lan meg din kone (1958) VHSRip
  • Холостяк (2013) SATRip
  • Холостяк (2013) DVB
  • Холостяк (2013) SATRip
  • Холостяк (2013) DVB
  • Холостяк / The Bachelor (1999) DVDRip скачать через торрент бесплатно
  • Холостяк (2013-2014) SATRip
  • Убежденный холостяк / The Man Who Cant Get Married (2006) HDTVRip 1080p скачать через торрент бесплатно


    • Комментарии (0):

      Информация

      Информация

        Посетители, находящиеся в группе Гости, не могут оставлять комментарии в данной новости.

        ↓ Меню



        ↓ Опрос

        А Вы добавили сайт в закладки?
        Да
        Не


        Top 10 за месяц (Фильмы)