.
Авторизация | Регистрация
Хочешь лучшие торренты? Добавь свой email!
Добавить
» » Не может быть! (1975) HDTVRip 720p торрент скачать бесплатно




    Не может быть! (1975) HDTVRip 720p торрент скачать бесплатно

    Опубликовал: Админ | Дата: 5-11-2016, 05:03 | Просмотров: 6



    Детально о кино
    Русское название: Не может быть!
    Создали в: 1975
    Категория жанра: Мелодрама, комедия
    Главный режиссер: Леонид Гайдай

    Актеры
    Нина Гребешкова, Михаил Пуговкин, Вячеслав Невинный, Михаил Светин, Раднэр Муратов, Лев Поляков, Виктор Уральский, Олег Даль, Светлана Крючкова, Михаил Кокшенов, Евгений Жариков, Наталья Селезнёва, Лариса Ерёмина, Елена Вольская, Леонид Куравлёв, Савелий Крамаров, Георгий Вицин, Валентина Теличкина, Людмила Шагалова, Светлана Харитонова, Наталья Крачковская, Сергей Филиппов, Игорь Ясулович, Эве Киви, Готлиб Ронинсон, Нина Крачковская

    Сюжет фильма

    Фильм включает три новеллы о негативных явлениях провинциальной жизни молодой страны Советов: тупости, пьянстве, стяжательстве, бездуховности — всем том, что и сейчас существует благополучно и повсеместно

    Снималось в: СССР
    Киностудия: Мосфильм
    Время просмотра: 01: 31: 39
    Перевод текста: Не требуется
    Файл
    Качество фильма: HDTVRip 720p
    Тип видео: MKV
    Кодек для видео: MPEG-4 AVC Video
    Информация о видео: 1038x720 (1, 442: 1), 24 fps, MPEG-4 AVC ~4000 kbps avg, 0.223 bit/pixel
    Информация о звуке: AC3, 48 kHz, 2 ch, ~192.00 kbps avg | русский
    Субтитры: Отсутствуют
    Семпл
    Инфо-файл
    Общее
    Уникальный идентификатор : 208118262274006977381604241456102127588 (0x9C921E8C53F4C30D9CC18C097BFC37E4)
    Полное имя : D: TorrentsЗавершенныеNe.mozhet.byt.1975.720p.mkv
    Формат : Matroska
    Версия формата : Version 4/Version 2
    Размер файла : 2, 69 Гбайт
    Продолжительность : 1 ч. 31 м.
    Общий поток : 4198 Кбит/сек
    Название фильма : Не может быть (1975)
    Дата кодирования : UTC 2016-10-23 19: 49: 19
    Программа кодирования : mkvmerge v8.3.0 (;Over the Horizon;) 64bit
    Библиотека кодирования : libebml v1.3.1 + libmatroska v1.4.2
    DURATION : 01: 31: 39.328000000
    NUMBER_OF_FRAMES : 171854
    NUMBER_OF_BYTES : 131983872
    _STATISTICS_WRITING_APP : mkvmerge v8.3.0 (;Over the Horizon;) 64bit
    _STATISTICS_WRITING_DATE_UTC : 2016-10-23 19: 49: 19
    _STATISTICS_TAGS : BPS DURATION NUMBER_OF_FRAMES NUMBER_OF_BYTES
    Видео
    Идентификатор : 1
    Формат : AVC
    Формат/Информация : Advanced Video Codec
    Профиль формата : High@L4.1
    Параметр CABAC формата : Да
    Параметр ReFrames формата : 8 кадров
    Идентификатор кодека : V_MPEG4/ISO/AVC
    Продолжительность : 1 ч. 31 м.
    Битрейт : 4000 Кбит/сек
    Ширина : 1038 пикселей
    Высота : 720 пикселей
    Соотношение сторон : 1, 442
    Режим частоты кадров : Постоянный
    Частота кадров : 24, 000 кадра/сек
    Цветовое пространство : YUV
    Субдискретизация насыщенности : 4: 2: 0
    Битовая глубина : 8 бит
    Тип развёртки : Прогрессивная
    Бит/(Пиксели*Кадры) : 0.223
    Размер потока : 2, 51 Гбайт (93%)
    Библиотека кодирования : x264 core 148 r2705 3f5ed56
    Настройки программы : cabac=1/ref=8/deblock=1: -1: 1/analyse=0x3: 0x133/me=umh/subme=11/psy=1/psy_rd=1.00: 0.00/mixed_ref=1/me_range=30/chroma_me=1/trellis=2/8x8dct=1/cqm=0/deadzone=21, 11/fast_pskip=1/chroma_qp_offset=-2/threads=12/lookahead_threads=1/sliced_threads=0/nr=0/decimate=0/interlaced=0/bluray_compat=0/constrained_intra=0/bframes=5/b_pyramid=2/b_adapt=1/b_bias=0/direct=1/weightb=1/open_gop=0/weightp=2/keyint=240/keyint_min=24/scenecut=40/intra_refresh=0/rc_lookahead=40/rc=abr/mbtree=1/bitrate=4000/ratetol=1.0/qcomp=0.60/qpmin=0/qpmax=69/qpstep=4/vbv_maxrate=62500/vbv_bufsize=78125/nal_hrd=none/filler=0/ip_ratio=1.40/aq=1: 1.00
    Язык : Russian
    Default : Да
    Forced : Да
    Цветовой диапазон : Limited
    Основные цвета : BT.709
    Характеристики трансфера : BT.709
    Коэффициенты матрицы : BT.709
    DURATION : 01: 31: 39.209000000
    NUMBER_OF_FRAMES : 131981
    NUMBER_OF_BYTES : 2752352541
    _STATISTICS_WRITING_APP : mkvmerge v8.3.0 (;Over the Horizon;) 64bit
    _STATISTICS_WRITING_DATE_UTC : 2016-10-23 19: 49: 19
    _STATISTICS_TAGS : BPS DURATION NUMBER_OF_FRAMES NUMBER_OF_BYTES
    Аудио
    Идентификатор : 2
    Формат : AC-3
    Формат/Информация : Audio Coding 3
    Расширение режима : CM (complete main)
    Параметр Endianness формата : Big
    Идентификатор кодека : A_AC3
    Продолжительность : 1 ч. 31 м.
    Вид битрейта : Постоянный
    Битрейт : 192 Кбит/сек
    Каналы : 2 канала
    Расположение каналов : Front: L R
    Частота : 48, 0 КГц
    Метод сжатия : С потерями
    Задержка видео : -5 мс.
    Размер потока : 126 Мбайт (5%)
    Default : Да
    Forced : Нет
    Скриншоты


    Онлайн видео Сердце без замка (2012) HDTVRip


    Размер скачиваемого торрента: 2.69 GB (2885556101 Bytes)

    Не может быть! (1975) HDTVRip 720p
    загрузка...
    Рейтинг →
     (голосов: 1, оценка 4/5, голосовать можно 1 раз )

    Другие торренты по теме:

  • Хопо - Может быть (1988) MP3
  • Смотрим... Обсуждаем..: Здесь может быть ваша реклама (2013) SATRip
  • Моя сестренка не может быть такой милашкой / Ore no Imouto ga Konna ni Kawaii Wake ga Nai (2010,2013) HDTVRip 720p | L1
  • Этого не может быть (1990) TVRip
  • Может быть, логично: жития и идеи Роберта Антона Уилсона / Maybe Logic: The Lives and Ideas of Robert Anton Wilson (2003) DVDRip
  • Моя сестренка не может быть такой милашкой / Ore no Imouto ga Konna ni Kawaii Wake ga Nai (2010-2013) HDTVRip | L1
  • Жизнь не может быть скучной / Живем один раз / Zindagi Na Milegi Dobara (2011) HDRip от Rulya74 | P скачать через торрент бесплатно
  • Не может быть! / 1975 / РУ / DVDRip


    • Комментарии (0):

      Информация

      Информация

        Посетители, находящиеся в группе Гости, не могут оставлять комментарии в данной новости.

        ↓ Меню



        ↓ Опрос

        А Вы добавили сайт в закладки?
        Да
        Не


        Top 10 за месяц (Фильмы)