.
Авторизация | Регистрация
Хочешь лучшие торренты? Добавь свой email!
Добавить
» » Жених (2016) BDRemux 1080p | Лицензия торрент скачать бесплатно




    Жених (2016) BDRemux 1080p | Лицензия торрент скачать бесплатно

    Опубликовал: Админ | Дата: 5-11-2016, 05:03 | Просмотров: 5



    Детально о кино:
    Русское название: Жених
    Создали в: Россия
    Дата мировой премьеры: 16 сентября 2016
    Дата российской премьеры: 15 сентября 2016
    Категория жанра: комедия
    Главный режиссер: Александр Незлобин

    Актеры
    Сергей Светлаков, Светлана Смирнова-Марцинкевич, Филипп Рейнхардт, Ольга Картункова, Дмитрий Никулин, Наталья Паршенкова, Сергей Бурунов, Александр Демидов, Георгий Дронов, Тимофей Зайцев
    Описание:
    Как немец в Россию 9 мая приезжал жениться на русской красавице Алене, с которой они познакомились в Берлине. Счастливая пара едет в деревню — знакомиться с родственниками невесты. Однако туда же приезжает и бывший муж Алены — Толя, который неожиданно решил вернуть жену. Все оборачивается романтическим соперничеством, в которое кроме Толи и Гельмута, вмешиваются их друзья, родственники, а также другие жители деревни — бизнесмен Ерофеев, купивший дом по соседству, заблудившийся танкист и даже змея.

    Информация о файле:
    Контейнер: MKV
    Качество фильма видео: BDRemux (1080p)
    Перевод текста: Не требуется (Русский, Лицензия BD RUS)
    Информация о видео: 1920x1080, 23.976 fps, AVC/H.264, ~18979 kbps avg
    Информация о звуке: Русский DTS-HD MA, 6 ch, 3592 kbps
    Субтитры: отсутствуют
    Время просмотра: 1: 32: 43
    Сэмпл: Скачать
    За исходник, большое спасибо HDCLUB
    Mediainfo:
    Общее
    Уникальный идентификатор : 246706765168745559553712267782989604733 (0xB999FEA185CAE768A0A900631D70E77D)
    Полное имя : G: ТоррентыЖених BDRemux.mkv
    Формат : Matroska
    Версия формата : Version 4/Version 2
    Размер файла : 14, 6 Гбайт
    Продолжительность : 1 ч. 32 м.
    Режим общего битрейта : Переменный
    Общий поток : 22, 6 Мбит/сек
    Дата кодирования : UTC 2016-10-29 01: 41: 33
    Программа кодирования : mkvmerge v9.5.0 (;Quiet Fire;) 64bit
    Библиотека кодирования : libebml v1.3.4 + libmatroska v1.4.5
    Видео
    Идентификатор : 1
    Формат : AVC
    Формат/Информация : Advanced Video Codec
    Профиль формата : High@L4
    Параметр CABAC формата : Да
    Параметр ReFrames формата : 2 кадра
    Параметр GOP формата : M=2, N=12
    Идентификатор кодека : V_MPEG4/ISO/AVC
    Продолжительность : 1 ч. 32 м.
    Вид битрейта : Переменный
    Битрейт : 19, 0 Мбит/сек
    Максимальный битрейт : 22, 0 Мбит/сек
    Ширина : 1920 пикселей
    Высота : 1080 пикселей
    Соотношение сторон : 16: 9
    Режим частоты кадров : Постоянный
    Частота кадров : 23, 976 (24000/1001) кадра/сек
    Цветовое пространство : YUV
    Субдискретизация насыщенности : 4: 2: 0
    Битовая глубина : 8 бит
    Тип развёртки : Прогрессивная
    Бит/(Пиксели*Кадры) : 0.382
    Размер потока : 12, 3 Гбайт (84%)
    Default : Да
    Forced : Нет
    Аудио
    Идентификатор : 2
    Формат : DTS
    Формат/Информация : Digital Theater Systems
    Профиль формата : MA/Core
    Режим : 16
    Параметр Endianness формата : Big
    Идентификатор кодека : A_DTS
    Продолжительность : 1 ч. 32 м.
    Вид битрейта : Переменный/Постоянный
    Битрейт : 3592 Кбит/сек/1509 Кбит/сек
    Каналы : 6 каналов
    Расположение каналов : Front: L C R, Side: L R, LFE
    Частота : 48, 0 КГц
    Частота кадров : 93, 750 кадра/сек (512 spf)
    Битовая глубина : 24 бит
    Метод сжатия : Без потерь/Lossy
    Размер потока : 2, 33 Гбайт (16%)
    Язык : Russian
    Default : Да
    Forced : Нет

    Скриншоты:


    Залил: serezhka86rus

    Онлайн видео Жених (2016) BDRemux 1080p


    Размер скачиваемого торрента: 14.62 GB (15699202903 Bytes)

    Жених (2016) BDRemux 1080p | Лицензия
    загрузка...
    Рейтинг →
     (голосов: 1, оценка 4/5, голосовать можно 1 раз )

    Другие торренты по теме:

  • Жених (2013) SATRip
  • Жених (2013) DVB от Files-x
  • Жених (2013) SATRip от Files-x
  • Жених на прокат / Ichkuyov (2009) SATRip от ClubTorrent | P2 скачать через торрент бесплатно
  • Давай поженимся. Видный жених (2014) HDTVRip 720p от waPBX
  • Сбежавший жених / Don Peyote (2014) WEB-DLRip 720p от CINEMANIA скачать через торрент бесплатно
  • Сбежавший жених / Дон Пейот / Don Peyote (2014) WEB-DLRip скачать через торрент бесплатно
  • Сбежавший жених / Дон Пейот / Don Peyote (2014) WEB-DLRip скачать через торрент бесплатно


    • Комментарии (0):

      Информация

      Информация

        Посетители, находящиеся в группе Гости, не могут оставлять комментарии в данной новости.

        ↓ Меню



        ↓ Опрос

        А Вы добавили сайт в закладки?
        Да
        Не


        Top 10 за месяц (Фильмы)