.
Авторизация | Регистрация
» » В добрый час! (1956) DVDRip от New-Team скачать торрент бесплатно




    В добрый час! (1956) DVDRip от New-Team скачать торрент бесплатно

    Опубликовал: Админ | Дата: 5-11-2016, 05:03 | Просмотров: 31



    Снималось в: СССР
    Создали в: Киностудия им.Горького
    Категория жанра: драма, мелодрама
    Создали в: 1956
    Время просмотра: 01: 32: 56
    Перевод текста: Не требуется
    Субтитры подготовлены: нет
    Оригинальная аудиодорожка: русский
    Главный режиссер: Виктор Эйсымонт

    Актеры

    Леонид Харитонов, Леонид Давыдов-Субоч, Людмила Чернышёва, Виктор Хохряков, Наталья Малявина, Олег Анофриев, Олег Голубицкий, Галина Самохина, Лариса Нарышкина, Сергей Витомсков...
    Полный список актёров
    Описание:
    По одноименной пьесе В.Розова.
    Повесть о выпускниках школы 50-х годов, пытающихся - в меру своих привязанностей и увлечений - выбрать свой собственный путь в жизни. В Москву из далекой сибирской деревни приезжает поступать в институт Алексей. Он останавливается у родственников, в профессорской семье. После провала на приемных экзамена он уезжает домой вместе с сыном профессора Андреем, еще не до конца решившим, чем ему заниматься.



    Источник: DVD9 R5
    Качество фильма видео: DVDRip
    Тип видео видео: AVI
    Информация о видео: 576x432 (4: 3), 25 fps, XviD ~ 984 kbps avg, 0.158 bit/pixel
    Информация о звуке: 48 kHz, MP3 2.0, 128 kbps
    Раздача от:
    MediaInfo

    Общее
    Полное имя : V.dobriy.chas!1956.DVDRip-745_New-team_by_AVP_Studio.avi
    Формат : AVI
    Формат/Информация : Audio Video Interleave
    Размер файла : 745 Мбайт
    Продолжительность : 1 ч. 32 м.
    Общий поток : 1121 Кбит/сек
    Программа кодирования : VirtualDubMod 1.5.10.3 | www.virtualdub-fr.org || (build 2550/release)
    Библиотека кодирования : VirtualDubMod build 2550/release
    Видео
    Идентификатор : 0
    Формат : MPEG-4 Visual
    Профиль формата : Advanced Simple@L5
    Параметр BVOP формата : 1
    Параметр QPel формата : Нет
    Параметр GMC формата : Без точки перехода
    Параметр матрицы формата : Выборочная
    Идентификатор кодека : XVID
    Идентификатор кодека/Подсказка : XviD
    Продолжительность : 1 ч. 32 м.
    Битрейт : 984 Кбит/сек
    Ширина : 576 пикселей
    Высота : 432 пикселя
    Соотношение сторон : 4: 3
    Частота кадров : 25, 000 кадров/сек
    Цветовое пространство : YUV
    Субдискретизация насыщенности : 4: 2: 0
    Битовая глубина : 8 бит
    Тип развёртки : Прогрессивная
    Метод сжатия : С потерями
    Бит/(Пиксели*Кадры) : 0.158
    Размер потока : 654 Мбайт (88%)
    Библиотека кодирования : XviD 1.2.1 (UTC 2008-12-04)
    Аудио
    Идентификатор : 1
    Формат : MPEG Audio
    Версия формата : Version 1
    Профиль формата : Layer 3
    Идентификатор кодека : 55
    Идентификатор кодека/Подсказка : MP3
    Продолжительность : 1 ч. 32 м.
    Вид битрейта : Постоянный
    Битрейт : 128 Кбит/сек
    Каналы : 2 канала
    Частота : 48, 0 КГц
    Метод сжатия : С потерями
    Размер потока : 85, 1 Мбайт (11%)
    Выравнивание : Соединение по промежуткам
    Продолжительность промежутка : 40 мс. (1, 00 видеокадр)
    Время предзагрузки промежутка : 504 мс.
    Библиотека кодирования : LAME3.99r
    Залил: AVPStudio

    Онлайн видео В добрый час! (1956) DVDRip от New


    Размер скачиваемого торрента: 745.50 MB (781709312 Bytes)


    В добрый час! (1956) DVDRip от New-Team
    загрузка...
    Рейтинг →
     (голосов: 1, оценка 3/5, голосовать можно 1 раз )

    Другие торренты по теме:

  • Добрый король Дагобер / Le bon roi Dagobert (1963) DVDRip-AVC от Тorrent-Хzona торрент скачать бесплатно
  • В добрый час! (1956) DVDRip от Кинорадиомагия скачать торрент бесплатно
  • В добрый час! (1956) DVDRip-AVC от New-Team скачать торрент бесплатно
  • Полночь в саду добра и зла / Midnight in the Garden of Good and Evil (1997) DVDRip | P2 торрент скачать бесплатно
  • Добро пожаловать в Лос-Анджелес / Welcome to L.A. (1976) DVDRip-AVC от Temperest торрент скачать бесплатно
  • Добрейшее создание / Buona come il pane (1981) DVDRip торрент скачать бесплатно
  • Доброе утро, господин Фидельман! / Boker tov adon Fidelman (2011) DVDRip от ClubTorrent торрент скачать бесплатно
  • Добро пожаловать на каникулы / Nightmare Beach (1989) DVDRip | A торрент скачать бесплатно


    • Комментарии (0):

      Информация

      Информация

        Посетители, находящиеся в группе Гости, не могут оставлять комментарии в данной новости.

        ↓ Меню



        ↓ Опрос

        А Вы добавили сайт в закладки?
        Да
        Не


        Top 10 за неделю (Фильмы)