.
Авторизация | Регистрация
Хочешь лучшие торренты? Добавь свой email!
Добавить
» » В тихом омуте / Ma Loute (2016) BDRip 1080p от ExKinoRay | iTunes торрент скачать бесплатно




    В тихом омуте / Ma Loute (2016) BDRip 1080p от ExKinoRay | iTunes торрент скачать бесплатно

    Опубликовал: Админ | Дата: 5-11-2016, 05:04 | Просмотров: 61



    Детально о кино
    Русское название: В тихом омуте
    Русское название в мировом прокате: Ma Loute
    Создали в: 2016
    Категория жанра: Комедия, триллер, детектив
    Главный режиссер: Брюно Дюмон

    Актеры
    Фабрис Лукини, Жюльетт Бинош, Валерия Бруни-Тедески, Жан-Люк Винсент, Брандон Лавьевиль, Ральф, Дидье Депре, Сирил Риго, Лаура Дюпре, Тьерри Лавьевиль, Кэролайн Карбоннье, Манон Руайер, Анна Захарова
    О фильме:
    Лето 1910 года. Один за другим исчезают туристы, забредающие в тихую бухту, где живут Брефоры — дебильноватая полунищая семейка собирателей мидий. Неподалеку в собственном особняке каждое лето проводят ван Петегемы, буржуа с претензией на декаданс, но с явными признаками психических отклонений у всех членов семьи, за исключением красавицы Билли. Да и с ней, собственно, что-то не так. Семейки явно недолюбливают друг друга, но юные Малют Брефор и Билли ван Петегем внезапно ощущают влечение друг к другу. История усугубляется тем, что Брефоры — каннибалы, втихую поедающие одиноких путников (на одних мидиях долго не протянешь), а ван Петегемы — просто идиоты! Свою долю хаоса добавляют придурковатые инспекторы Машан и Малфой, прибывшие расследовать таинственные исчезновения.

    Снималось в: Франция
    Киностудия: Canal+ fr, 3B Productions, Arte France
    Время просмотра: 02: 03: 05
    Перевод текста: Дублированный | iTunes
    Файл
    Кодек для видео: MPEG-4
    Качество фильма: BDRip 1080p
    Информация о видео: 1920x800, 10.2 Mbit/s, 23.976 fps
    Информация о звуке:
    Информация о звуке #01: 48 kHz, AC3, 5.1, 384 Kbps | Дублированный | iTunes |
    Информация о звуке #02: 48 kHz, DTS, 5.1, 1510 kbps | Оригинал |
    MI
    General
    Unique ID : 231388377494009812371822499651745362475 (0xAE13C7CED73A3D44B2DF9B7FA496322B)
    Complete name : H: VideoMa.Loute.2016.BDRip.1080p.ExKinoRay.mkv
    Format : Matroska
    Format version : Version 4/Version 2
    File size : 10.4 GiB
    Duration : 2 h 3 min
    Overall bit rate : 12.1 Mb/s
    Movie name : ***селезень***
    Encoded date : UTC 2016-11-02 00: 34: 15
    Writing application : mkvmerge v8.3.0 (;Over the Horizon;) 64bit
    Writing library : libebml v1.3.1 + libmatroska v1.4.2
    Video
    ID : 1
    Format : AVC
    Format/Info : Advanced Video Codec
    Format profile : High@L4.1
    Format settings, CABAC : Yes
    Format settings, ReFrames : 5 frames
    Codec ID : V_MPEG4/ISO/AVC
    Duration : 2 h 3 min
    Bit rate : 10.2 Mb/s
    Width : 1 920 pixels
    Height : 800 pixels
    Display aspect ratio : 2.40: 1
    Frame rate mode : Constant
    Frame rate : 23.976 (24000/1001) FPS
    Color space : YUV
    Chroma subsampling : 4: 2: 0
    Bit depth : 8 bits
    Scan type : Progressive
    Bits/(Pixel*Frame) : 0.277
    Stream size : 8.77 GiB (84%)
    Title : ***селезень***
    Writing library : x264 core 148 r2699+6+41 29a38aa Yuuki 8-bit@4: 2: 0 X86_64GCC 5.3.0
    Encoding settings : cabac=1/ref=5/deblock=1: -3: -3/analyse=0x3: 0x113/me=umh/subme=11/psy=1/fade_compensate=0.00/psy_rd=1.00: 0.05/mixed_ref=1/me_range=32/chroma_me=1/trellis=2/8x8dct=1/cqm=0/deadzone=21, 11/fast_pskip=0/chroma_qp_offset=-2/threads=24/lookahead_threads=4/sliced_threads=0/nr=0/decimate=1/interlaced=0/bluray_compat=0/constrained_intra=0/fgo=0/bframes=8/b_pyramid=2/b_adapt=2/b_bias=0/direct=3/weightb=1/open_gop=0/weightp=2/keyint=250/keyint_min=23/scenecut=40/intra_refresh=0/rc_lookahead=40/rc=crf/mbtree=0/crf=18.3000/qcomp=0.60/qpmin=0: 0: 0/qpmax=69: 69: 69/qpstep=4/vbv_maxrate=50000/vbv_bufsize=40000/crf_max=0.0/nal_hrd=none/filler=0/ip_ratio=1.40/pb_ratio=1.30/aq=3: 0.90
    Language : French
    Default : Yes
    Forced : No
    Audio #1
    ID : 2
    Format : AC-3
    Format/Info : Audio Coding 3
    Mode extension : CM (complete main)
    Format settings, Endianness : Big
    Codec ID : A_AC3
    Duration : 2 h 3 min
    Bit rate mode : Constant
    Bit rate : 384 kb/s
    Channel(s) : 6 channels
    Channel positions : Front: L C R, Side: L R, LFE
    Sampling rate : 48.0 kHz
    Frame rate : 31.250 FPS (1536 spf)
    Bit depth : 16 bits
    Compression mode : Lossy
    Stream size : 338 MiB (3%)
    Title : iTunes
    Language : Russian
    Default : Yes
    Forced : No
    Audio #2
    ID : 3
    Format : DTS
    Format/Info : Digital Theater Systems
    Mode : 16
    Format settings, Endianness : Big
    Codec ID : A_DTS
    Duration : 2 h 3 min
    Bit rate mode : Constant
    Bit rate : 1 509 kb/s
    Channel(s) : 6 channels
    Channel positions : Front: L C R, Side: L R, LFE
    Sampling rate : 48.0 kHz
    Frame rate : 93.750 FPS (512 spf)
    Bit depth : 16 bits
    Compression mode : Lossy
    Stream size : 1.30 GiB (12%)
    Title : Original
    Language : French
    Default : No
    Forced : No
    Menu
    00: 00: 00.000 : en: 00: 00: 00.000
    00: 09: 49.589 : en: 00: 09: 49.589
    00: 22: 55.374 : en: 00: 22: 55.374
    00: 36: 32.190 : en: 00: 36: 32.190
    00: 45: 16.714 : en: 00: 45: 16.714
    01: 00: 54.651 : en: 01: 00: 54.651
    01: 11: 45.301 : en: 01: 11: 45.301
    01: 31: 36.491 : en: 01: 31: 36.491
    01: 37: 46.861 : en: 01: 37: 46.861
    01: 48: 08.482 : en: 01: 48: 08.482
    01: 52: 39.753 : en: 01: 52: 39.753
    01: 59: 55.188 : en: 01: 59: 55.188

    Скриншоты


    Релиз подготовил: Автор релиза:

    Онлайн видео В тихом омуте


    Размер скачиваемого торрента: 10.40 GB (11171400318 Bytes)

    В тихом омуте/Ma Loute (2016) BDRip 1080p от ExKinoRay | iTunes
    загрузка...
    Рейтинг →
     (голосов: 1, оценка 5/5, голосовать можно 1 раз )

    Другие торренты по теме:

  • Эксперимент: Зло / В тихом омуте / The Quiet Ones (2014) BDRip-AVC | D скачать через торрент бесплатно
  • В тихом омуте / Ma Loute (2016) HDRip-AVC | iTunes
  • В тихом омуте / Ma Loute (2016) HDRip | iTunes
  • В тихом омуте / Ma Loute (2016) BDRip 720p от ExKinoRay | iTunes
  • В тихом омуте / Ma Loute (2016) HDRip от MegaPeer | iTunes
  • В тихом омуте / Ma Loute (2016) BDRip от MegaPeer | iTunes


    • Комментарии (0):

      Информация

      Информация

        Посетители, находящиеся в группе Гости, не могут оставлять комментарии в данной новости.

        ↓ Меню



        ↓ Опрос

        А Вы добавили сайт в закладки?
        Да
        Не


        Top 10 за месяц (Фильмы)