.
Авторизация | Регистрация
» » Искусственный интеллект. Доступ неограничен / I.T. (2016) BDRip 1080р от ExKinoRay | iTunes скачать торрент бесплатно




    Искусственный интеллект. Доступ неограничен / I.T. (2016) BDRip 1080р от ExKinoRay | iTunes скачать торрент бесплатно

    Опубликовал: Админ | Дата: 5-11-2016, 05:04 | Просмотров: 58



    Детально о кино
    Русское название: Искусственный интеллект. Доступ неограничен
    Русское название в мировом прокате: I.T.
    Создали в: 2016
    Категория жанра: Триллер, драма, криминал, детектив
    Главный режиссер: Джон Мур

    Актеры
    Анна Фрил, Пирс Броснан, Стефани Скотт, Микаэл Нюквист, Джеймс Фрешвилл, Клэр-Хоуп Эшити, Джейсон Бэрри, Адам Фергус, Рико Симонини
    О фильме:
    Вся жизнь Майка Ригана и его семьи построена на последних достижениях искусственного интеллекта и высоких технологий, а его умный дом — настоящее произведение технического искусства. Когда Майк пытается прекратить зашедшие слишком далеко отношения своего IT-специалиста Эда с юной дочерью, жизнь Ригана и его семьи оказываются под угрозой. Они попадают в ловушку созданных Риганом умных технологий, которыми теперь управляет безумный гений Эд, вовлекая Ригана в опасную и непредсказуемую игру.

    Снималось в: США, Франция, Ирландия
    Киностудия: 22h22, Fastnet Films, Friendly Films
    Время просмотра: 01: 35: 36
    Перевод текста: Дублированный | iTunes
    Файл
    Кодек для видео: MPEG-4
    Качество фильма: BDRip 1080p
    Информация о видео: 1920x804, 9316 Kbit/s, 23.976 fps
    Информация о звуке:
    Информация о звуке #01: 48 kHz, AC3, 5.1, 384 Kbps | Дублированный | iTunes |
    Информация о звуке #02: 48 kHz, AC3, 5.1, 640 kbps | Оригинал |
    Субтитры: Английские
    MI
    General
    Unique ID : 223888850169991107223022947385498179295 (0xA86F6C90394E4741B65D90394D2096DF)
    Complete name : H: VideoI.T.2016.BDRip.1080p.ExKinoRay.mkv
    Format : Matroska
    Format version : Version 4/Version 2
    File size : 6.90 GiB
    Duration : 1 h 35 min
    Overall bit rate : 10.3 Mb/s
    Movie name : ***селезень***
    Encoded date : UTC 2016-11-02 17: 14: 39
    Writing application : mkvmerge v8.3.0 (;Over the Horizon;) 64bit
    Writing library : libebml v1.3.1 + libmatroska v1.4.2
    Video
    ID : 1
    Format : AVC
    Format/Info : Advanced Video Codec
    Format profile : High@L4.1
    Format settings, CABAC : Yes
    Format settings, ReFrames : 5 frames
    Codec ID : V_MPEG4/ISO/AVC
    Duration : 1 h 35 min
    Bit rate : 9 316 kb/s
    Width : 1 920 pixels
    Height : 804 pixels
    Display aspect ratio : 2.40: 1
    Frame rate mode : Constant
    Frame rate : 23.976 (24000/1001) FPS
    Color space : YUV
    Chroma subsampling : 4: 2: 0
    Bit depth : 8 bits
    Scan type : Progressive
    Bits/(Pixel*Frame) : 0.252
    Stream size : 6.21 GiB (90%)
    Title : ***селезень***
    Writing library : x264 core 146 r2538 121396c
    Encoding settings : cabac=1/ref=5/deblock=1: -3: -3/analyse=0x3: 0x133/me=umh/subme=11/psy=1/psy_rd=1.00: 0.00/mixed_ref=1/me_range=32/chroma_me=1/trellis=2/8x8dct=1/cqm=0/deadzone=21, 11/fast_pskip=0/chroma_qp_offset=-2/threads=12/lookahead_threads=1/sliced_threads=0/nr=0/decimate=0/interlaced=0/bluray_compat=0/constrained_intra=0/bframes=8/b_pyramid=2/b_adapt=2/b_bias=0/direct=3/weightb=1/open_gop=0/weightp=2/keyint=240/keyint_min=2/scenecut=40/intra_refresh=0/rc_lookahead=50/rc=2pass/mbtree=0/bitrate=9316/ratetol=1.0/qcomp=0.70/qpmin=0/qpmax=69/qpstep=4/cplxblur=20.0/qblur=0.5/vbv_maxrate=50000/vbv_bufsize=62500/nal_hrd=none/filler=0/ip_ratio=1.20/pb_ratio=1.20/aq=3: 0.80
    Language : English
    Default : Yes
    Forced : No
    Audio #1
    ID : 2
    Format : AC-3
    Format/Info : Audio Coding 3
    Mode extension : CM (complete main)
    Format settings, Endianness : Big
    Codec ID : A_AC3
    Duration : 1 h 35 min
    Bit rate mode : Constant
    Bit rate : 384 kb/s
    Channel(s) : 6 channels
    Channel positions : Front: L C R, Side: L R, LFE
    Sampling rate : 48.0 kHz
    Frame rate : 31.250 FPS (1536 spf)
    Bit depth : 16 bits
    Compression mode : Lossy
    Stream size : 263 MiB (4%)
    Title : iTunes
    Language : Russian
    Default : Yes
    Forced : No
    Audio #2
    ID : 3
    Format : AC-3
    Format/Info : Audio Coding 3
    Mode extension : CM (complete main)
    Format settings, Endianness : Big
    Codec ID : A_AC3
    Duration : 1 h 35 min
    Bit rate mode : Constant
    Bit rate : 640 kb/s
    Channel(s) : 6 channels
    Channel positions : Front: L C R, Side: L R, LFE
    Sampling rate : 48.0 kHz
    Frame rate : 31.250 FPS (1536 spf)
    Bit depth : 16 bits
    Compression mode : Lossy
    Stream size : 438 MiB (6%)
    Title : Original
    Language : English
    Default : No
    Forced : No
    Text
    ID : 4
    Format : UTF-8
    Codec ID : S_TEXT/UTF8
    Codec ID/Info : UTF-8 Plain Text
    Duration : 1 h 29 min
    Bit rate : 49 b/s
    Count of elements : 1067
    Stream size : 32.3 KiB (0%)
    Title : Full
    Language : English
    Default : No
    Forced : No
    Menu
    00: 00: 00.000 : en: 00: 00: 00.000
    00: 09: 44.667 : en: 00: 09: 44.667
    00: 19: 59.824 : en: 00: 19: 59.824
    00: 29: 33.563 : en: 00: 29: 33.563
    00: 41: 44.627 : en: 00: 41: 44.627
    00: 52: 07.958 : en: 00: 52: 07.958
    01: 00: 43.932 : en: 01: 00: 43.932
    01: 14: 08.819 : en: 01: 14: 08.819
    01: 22: 11.593 : en: 01: 22: 11.593
    01: 31: 53.341 : en: 01: 31: 53.341


    Релиз подготовил: Автор релиза:

    Онлайн видео Искусственный интеллект. Доступ неограничен


    Размер скачиваемого торрента: 6.90 GB (7403790739 Bytes)

    Искусственный интеллект. Доступ неограничен/I.T. (2016) BDRip 1080р от ExKinoRay | iTunes
    загрузка...
    Рейтинг →
     (голосов: 1, оценка 4/5, голосовать можно 1 раз )

    Другие торренты по теме:

  • Искусственный разум / Искусственный интеллект / Artificial Intelligence: AI (2001) BDRip-AVC от 0ptimus | D, P, A торрент скачать бесплатно
  • Искусственный разум (Искусственный интеллект) / Artificial Intelligence: AI / 2001 / ДБ, 2 х ПМ, АП (Живов, Визгунов), СТ / BDRip (AVC) скачать торрент бесплатно
  • Искусственный интеллект / Intelligence (2013) WEB-DLRip | LostFilm торрент скачать бесплатно
  • Искусственный интеллект - Серая сталь (2016) MP3 скачать торрент бесплатно
  • Искусственный интеллект. Доступ неограничен / I.T. (2016) WEB-DLRip | Звук с TS скачать торрент бесплатно


    • Комментарии (0):

      Информация

      Информация

        Посетители, находящиеся в группе Гости, не могут оставлять комментарии в данной новости.

        ↓ Меню



        ↓ Опрос

        А Вы добавили сайт в закладки?
        Да
        Не


        Top 10 за неделю (Фильмы)