.
Авторизация | Регистрация
» » Когда умирают легенды / When the Legends Die (1972) DVDRip | A скачать торрент бесплатно




    Когда умирают легенды / When the Legends Die (1972) DVDRip | A скачать торрент бесплатно

    Опубликовал: Админ | Дата: 7-11-2016, 05:00 | Просмотров: 27



    Детально о кино
    Русское название: Бал вампиров
    Русское название в мировом прокате: Dance of the Vampires
    Создали в: 1967
    Категория жанра: ужасы, фэнтези, комедия
    Главный режиссер: Роман Полански

    Актеры
    Джек МакГоурэн, Роман Полански, Элфи Бэсс, Джесси Робинс, Шэрон Тейт, Ферди Мэйн, Иэн Кворрир, Терри Даунс, Фиона Льюис и др.

    Сюжет фильма

    Профессор Абронзиус и его неопытный ассистент Альфред отправляются в Трансильванию, их цель- охота на вампиров. В заснеженных Карпатах, на постоялом дворе, где они остановились, Альфред знакомится с дочерью хозяина — прекрасной Сарой.
    Это знакомство было недолгим: коварный вампир похитил рыжеволосую красавицу и унес ее в свой мрачный замок в горах. Профессор и Альфред нашли прибежище нечисти. Удастся ли им перехитрить кровососов и спасти Сару, пока она сама не превратится в вампиршу?


    Снималось в: США, Великобритания
    Время просмотра: 01: 47: 25
    Перевод текста: Профессиональный (многоголосый закадровый), авторский (одноголосый закадровый), любительский (одноголосный)
    Файл
    Кодек для видео: h.264
    Качество фильма: WEB-DLRip-AVC
    Информация о видео: MPEG-4, 1024x426, 23.976 fps ~2669 kbps
    Информация о звуке:
    1)AAC 2 ch, 48 kHz ~128 kbps - MVO Film Prestige
    2)HE-AAC 1 ch, 24|48 kHz ~64 kbps - AVO Алексеев
    3)AAC 2 ch, 48 kHz ~128 kbps - VO Oneinchnales
    4)AAC 2 ch, 48 kHz ~128 kbps - Original
    Субтитры: Русские, английские
    Media Info:
    Скрытый текст
    General
    Unique ID : 245188201414748786097137898415393009327 (0xB87587A847E30713B3E1B8DEA0BAEEAF)
    Complete name : E: VideoБал вампиров (1967).mkv
    Format : Matroska
    Format version : Version 4/Version 2
    File size : 2.33 GiB
    Duration : 1 h 47 min
    Overall bit rate : 3 102 kb/s
    Movie name : Dance of the Vampires The Fearless vampire killers (1967)
    Encoded date : UTC 2016-11-06 16: 26: 36
    Залил: DrVampir

    Онлайн видео Бал вампиров


    Размер скачиваемого торрента: 2.33 GB (2499630526 Bytes)

    Снималось в: США
    Создали в: 20th Century Fox Film Corporation, Sagaponack Films
    Категория жанра: Приключения
    Создали в: 1972
    Время просмотра: 01: 41: 00
    Перевод текста: Авторский (Дольский)
    Оригинальная аудиодорожка: Английская
    Главный режиссер: Стюарт Миллар

    Актеры
    Ричард Уидмарк, Фредерик Форрест, Луана Андерс, Вито Скотти, Херберт Нельсон, Джон Уор Игл, Джон Грубер, Гарри Уолберг, Джек Муллани, Малкольм Керли
    Описание: Том, по прозвищу Чёрный Бык, юноша из индейского племени ют, познакомился с Редом Диллоном, бывшим наездником родео. Ред, спившийся, опустившийся, увидел в Томе будущую звезду. Юноша проходит у него жестокую школу и превращается в выдающегося наездника. Для Реда Том — средство, с помощью которого он загребает деньги на тотализаторе, не останавливаясь перед жульничеством. Однако цельной натуре Тома мошенничество претит. Он бросает свою блистательную карьеру и возвращается к родному племени.

    Исходник: DVD5 R1
    Тип релиза: DVDRip
    Контейнер: AVI
    Информация о видео: 704x384 (1.83: 1), 25 fps, XviD build 50 ~1669 kbps avg, 0.25 bit/pixel
    Информация о звуке 1: АС3, 2 ch, 192 Кбит/с (Русский)
    Информация о звуке 2: АС3, 2 ch, 192 Кбит/с (Английский)
    MediaInfo

    Общее
    Полное имя : G: ААА2Когда умирают легенды.avi
    Формат : AVI
    Формат/Информация : Audio Video Interleave
    Размер файла : 1, 46 Гбайт
    Продолжительность : 1 ч. 41 м.
    Общий поток : 2069 Кбит/сек
    Программа кодирования : VirtualDubMod 1.5.10.2 (build 2542/release)
    Библиотека кодирования : VirtualDubMod build 2542/release
    Видео
    Идентификатор : 0
    Формат : MPEG-4 Visual
    Профиль формата : Advanced Simple@L5
    Параметр BVOP формата : 2
    Параметр QPel формата : Нет
    Параметр GMC формата : Без точки перехода
    Параметр матрицы формата : Default (MPEG)
    Идентификатор кодека : XVID
    Идентификатор кодека/Подсказка : XviD
    Продолжительность : 1 ч. 41 м.
    Битрейт : 1671 Кбит/сек
    Ширина : 704 пикселя
    Высота : 384 пикселя
    Соотношение сторон : 1, 85: 1
    Частота кадров : 25, 000 кадров/сек
    Цветовое пространство : YUV
    Субдискретизация насыщенности : 4: 2: 0
    Битовая глубина : 8 бит
    Тип развёртки : Прогрессивная
    Метод сжатия : С потерями
    Бит/(Пиксели*Кадры) : 0.247
    Размер потока : 1, 18 Гбайт (81%)
    Библиотека кодирования : XviD 1.2.1 (UTC 2008-12-04)
    Аудио #1
    Идентификатор : 1
    Формат : AC-3
    Формат/Информация : Audio Coding 3
    Расширение режима : CM (complete main)
    Параметр Endianness формата : Big
    Идентификатор кодека : 2000
    Продолжительность : 1 ч. 40 м.
    Вид битрейта : Постоянный
    Битрейт : 192 Кбит/сек
    Каналы : 2 канала
    Расположение каналов : Front: L R
    Частота : 48, 0 КГц
    Битовая глубина : 16 бит
    Метод сжатия : С потерями
    Размер потока : 139 Мбайт (9%)
    Выравнивание : Разделение по промежуткам
    Продолжительность промежутка : 40 мс. (1, 00 видеокадр)
    Время предзагрузки промежутка : 500 мс.
    Аудио #2
    Идентификатор : 2
    Формат : AC-3
    Формат/Информация : Audio Coding 3
    Расширение режима : CM (complete main)
    Параметр Endianness формата : Big
    Идентификатор кодека : 2000
    Продолжительность : 1 ч. 41 м.
    Вид битрейта : Постоянный
    Битрейт : 192 Кбит/сек
    Каналы : 2 канала
    Расположение каналов : Front: L R
    Частота : 48, 0 КГц
    Битовая глубина : 16 бит
    Метод сжатия : С потерями
    Размер потока : 139 Мбайт (9%)
    Выравнивание : Разделение по промежуткам
    Продолжительность промежутка : 40 мс. (1, 00 видеокадр)
    Время предзагрузки промежутка : 500 мс.
    Скриншоты

    Релиз:
    Залил: YArl

    Онлайн видео Когда умирают легенды


    Размер скачиваемого торрента: 1.46 GB (1567578112 Bytes)


    Когда умирают легенды/When the Legends Die (1972) DVDRip | A
    загрузка...
    Рейтинг →
     (голосов: 1, оценка 4/5, голосовать можно 1 раз )

    Другие торренты по теме:

  • Когда звери мечтают / Когда животные видят сны / Nar dyrene drommer скачать через торрент бесплатно
  • Когда человек влюблен / Когда мужчина влюблён / Nam-ja-ga sa-rang-hal dae / When a Mans in Love (2013) HDTVRip | L2 скачать через торрент бесплатно
  • Кумиры - Вениамин Смехов - Когда я был Атосом. Юрий Любимов (2005) MP3 торрент скачать бесплатно
  • Когда мы встретились / Jab We Met (2007) BDRip-AVC от Тorrent-Хzona | P торрент скачать бесплатно
  • Когда Санта упал на Землю / Als der Weihnachtsmann vom Himmel fiel (2011) HDRip | P торрент скачать бесплатно
  • Когда плачут цикады: разгадки / Higurashi no Naku Koro ni Kai (2007) DVDRip | L2 торрент скачать бесплатно
  • Когда плачут цикады / Higurashi no Naku Koro ni OVA (2006) DVDRip | L2 торрент скачать бесплатно
  • Когда растаял снег (2009) DVD9 торрент скачать бесплатно


    • Комментарии (0):

      Информация

      Информация

        Посетители, находящиеся в группе Гости, не могут оставлять комментарии в данной новости.

        ↓ Меню



        ↓ Опрос

        А Вы добавили сайт в закладки?
        Да
        Не


        Top 10 за неделю (Фильмы)