.
Авторизация | Регистрация
Хочешь лучшие торренты? Добавь свой email!
Добавить
» » Ночной тариф / Night Fare (2015) BDRemux 1080p | Р2 торрент скачать бесплатно




    Ночной тариф / Night Fare (2015) BDRemux 1080p | Р2 торрент скачать бесплатно

    Опубликовал: Админ | Дата: 8-11-2016, 05:00 | Просмотров: 34



    Ночной тариф / Night Fare
    Снималось в: Франция
    Создали в: Daigoro Films
    Создали в: 2015
    Категория жанра: триллер
    Время просмотра: 01: 21: 11
    Главный режиссер: Жюльен Сери
    Авторы сценария: Жюльен Сери, Паскаль Сид

    Актеры
    Джонатан Ховард, Жонатан Демурже, Фанни Валетт, Жан-Франсуа Леног, Джесс Лиодин, Эдуард Монтут, Закария Гуран, Мусса Силла
    Описание: Древнее поверье гласит, если человек причинил вред другому, рано или поздно на горизонте появится Мститель, который найдёт и покарает его. Если это случилось, избежать смерти возможно только, если ты сам готов на время стать таким Мстителем и найти нового грешника. Двое друзей вечеринки в ночном клубе решают взять такси. Легкомысленно не заплатив за проезд, они ещё не догадывались, что сели не в то такси. Таинственный водитель начинает настоящую охоту за ними, убивая всех, кто встает на пути...

    Перевод текста: Профессиональный (двухголосый, закадровый) | официальный звук
    Субтитры: французские (full + forced)
    Качество фильма: BDRemux 1080p
    Тип видео: МКV
    Информация о видео кодек: AVC
    Информация о звуке кодек: АС3 | DTS
    Информация о видео: 1920x1080 (16: 9), 24.000 fps, MPEG-4 AVC ~12.5 Мbps avg
    Информация о звуке №1: 48.0 kHz, AC3 Dolby Digital, 2/0 (L, R) ch, ~384 kbps | RUS
    Информация о звуке №2: 48.0 kHz, Digital Theater Systems Master Audio, 3/2 (L, C, R, l, r) + LFE ch, ~1920 kbps/16-bit | FRE
    Информация о звуке №3: 48.0 kHz, Digital Theater Systems Master Audio, 2/0 (L, R) ch, ~1661 kbps/16-bit | FRE/ Commentaire audio du r?alisateur Julien Seri
    Тип видео субтитров: UTF-8 Plain Text
    Дата премьеры (мир): 17 июля 2015

    Релиз подготовил: flaSI-I
    BDRemux Info
    General
    Уникальный идентификатор : 184690179706471434692745022565056661746 (0x8AF208E5942FCD67BF6E1191086A48F2)
    Полное имя : Night Fare.2015.BDRemux.1080p.mkv
    Формат : Matroska
    Версия формата : Version 4/Version 2
    Размер файла : 13, 8 Гбайт
    Продолжительность : 1 ч. 21 м.
    Режим общего битрейта : Переменный
    Общий поток : 24, 3 Мбит/сек
    Дата кодирования : UTC 2016-11-06 14: 59: 58
    Программа кодирования : mkvmerge v9.5.0 (;Quiet Fire;) 64bit
    Библиотека кодирования : libebml v1.3.4 + libmatroska v1.4.5
    Видео
    Идентификатор : 1
    Формат : AVC
    Формат/Информация : Advanced Video Codec
    Профиль формата : High@L4.1
    Параметр CABAC формата : Да
    Параметр ReFrames формата : 3 кадра
    Идентификатор кодека : V_MPEG4/ISO/AVC
    Продолжительность : 1 ч. 21 м.
    Вид битрейта : Переменный
    Битрейт : 20, 3 Мбит/сек
    Максимальный битрейт : 25, 1 Мбит/сек
    Ширина : 1920 пикселей
    Высота : 1080 пикселей
    Соотношение сторон : 16: 9
    Режим частоты кадров : Постоянный
    Частота кадров : 24, 000 кадра/сек
    Стандарт вещания : NTSC
    Цветовое пространство : YUV
    Субдискретизация насыщенности : 4: 2: 0
    Битовая глубина : 8 бит
    Тип развёртки : Прогрессивная
    Бит/(Пиксели*Кадры) : 0.409
    Размер потока : 11, 5 Гбайт (84%)
    Язык : French
    Default : Да
    Forced : Нет
    Цветовой диапазон : Limited
    Основные цвета : BT.709
    Характеристики трансфера : BT.709
    Коэффициенты матрицы : BT.709
    Аудио #1
    Идентификатор : 2
    Формат : AC-3
    Формат/Информация : Audio Coding 3
    Расширение режима : CM (complete main)
    Параметр Endianness формата : Big
    Идентификатор кодека : A_AC3
    Продолжительность : 1 ч. 21 м.
    Вид битрейта : Постоянный
    Битрейт : 384 Кбит/сек
    Каналы : 2 канала
    Расположение каналов : Front: L R
    Частота : 48, 0 КГц
    Частота кадров : 31, 250 кадров/сек (1536 spf)
    Битовая глубина : 16 бит
    Метод сжатия : С потерями
    Размер потока : 223 Мбайт (2%)
    Заголовок : DVO
    Язык : Russian
    Default : Да
    Forced : Нет
    Аудио #2
    Идентификатор : 3
    Формат : DTS
    Формат/Информация : Digital Theater Systems
    Профиль формата : MA/Core
    Режим : 16
    Параметр Endianness формата : Big
    Идентификатор кодека : A_DTS
    Продолжительность : 1 ч. 21 м.
    Вид битрейта : Переменный/Постоянный
    Битрейт : 1920 Кбит/сек/1509 Кбит/сек
    Каналы : 6 каналов
    Расположение каналов : Front: L C R, Side: L R, LFE
    Частота : 48, 0 КГц
    Частота кадров : 93, 750 кадра/сек (512 spf)
    Битовая глубина : 16 бит
    Метод сжатия : Без потерь/Lossy
    Размер потока : 1, 08 Гбайт (8%)
    Заголовок : Original
    Язык : French
    Default : Нет
    Forced : Нет
    Аудио #3
    Идентификатор : 4
    Формат : DTS
    Формат/Информация : Digital Theater Systems
    Профиль формата : MA/Core
    Режим : 16
    Параметр Endianness формата : Big
    Идентификатор кодека : A_DTS
    Продолжительность : 1 ч. 21 м.
    Вид битрейта : Переменный/Постоянный
    Битрейт : 1661 Кбит/сек/1509 Кбит/сек
    Каналы : 2 канала
    Расположение каналов : Front: L R
    Частота : 48, 0 КГц
    Частота кадров : 93, 750 кадра/сек (512 spf)
    Битовая глубина : 16 бит
    Метод сжатия : Без потерь/Lossy
    Размер потока : 965 Мбайт (7%)
    Заголовок : Commentaire audio du r?alisateur Julien Seri
    Язык : French
    Default : Нет
    Forced : Нет
    Текст #1
    Идентификатор : 5
    Формат : UTF-8
    Идентификатор кодека : S_TEXT/UTF8
    Идентификатор кодека/Информация : UTF-8 Plain Text
    Продолжительность : 1 ч. 20 м.
    Битрейт : 36 бит/сек
    Count of elements : 853
    Размер потока : 21, 4 Кбайт (0%)
    Заголовок : Full
    Язык : French
    Default : Нет
    Forced : Нет
    Текст #2
    Идентификатор : 6
    Формат : UTF-8
    Идентификатор кодека : S_TEXT/UTF8
    Идентификатор кодека/Информация : UTF-8 Plain Text
    Продолжительность : 1 ч. 17 м.
    Битрейт : 12 бит/сек
    Count of elements : 303
    Размер потока : 7, 22 Кбайт (0%)
    Заголовок : Forced
    Язык : French
    Default : Нет
    Forced : Нет
    Меню
    00: 00: 00.000 : en: 00: 00: 00.000
    00: 05: 27.000 : en: 00: 05: 27.000
    00: 12: 13.833 : en: 00: 12: 13.833
    00: 17: 09.000 : en: 00: 17: 09.000
    00: 23: 50.000 : en: 00: 23: 50.000
    00: 31: 41.000 : en: 00: 31: 41.000
    00: 39: 29.000 : en: 00: 39: 29.000
    00: 43: 53.000 : en: 00: 43: 53.000
    00: 50: 32.625 : en: 00: 50: 32.625
    00: 54: 50.833 : en: 00: 54: 50.833
    01: 04: 39.958 : en: 01: 04: 39.958
    01: 14: 59.500 : en: 01: 14: 59.500
    Скриншоты

    Залил: Zha-4k-e

    Онлайн видео Ночной тариф


    Размер скачиваемого торрента: 13.77 GB (14787699056 Bytes)

    Ночной тариф/Night Fare (2015) BDRemux 1080p | Р2
    загрузка...
    Рейтинг →
     (голосов: 1, оценка 4/5, голосовать можно 1 раз )

    Другие торренты по теме:

  • Ночной тариф / Night Fare (2015) HDRip | L1


    • Комментарии (0):

      Информация

      Информация

        Посетители, находящиеся в группе Гости, не могут оставлять комментарии в данной новости.

        ↓ Меню



        ↓ Опрос

        А Вы добавили сайт в закладки?
        Да
        Не


        Top 10 за месяц (Фильмы)