.
Авторизация | Регистрация
Хочешь лучшие торренты? Добавь свой email!
Добавить
» » Заряженное оружие 1 / National Lampoons Loaded Weapon 1 (1993) WEBRip от Leon-masl | P, A торрент скачать бесплатно




    Заряженное оружие 1 / National Lampoons Loaded Weapon 1 (1993) WEBRip от Leon-masl | P, A торрент скачать бесплатно

    Опубликовал: Админ | Дата: 8-11-2016, 05:00 | Просмотров: 18



    Детально о кино
    Русское название: Заряженное оружие 1
    Русское название в мировом прокате: National Lampoon;s Loaded Weapon 1
    Создали в: 1993
    Категория жанра: пародия, боевик, комедия, криминал
    Главный режиссер: Джин Квинтано

    Актеры
    Эмилио Эстевес, Сэмюэл Л. Джексон, Джон Ловиц, Тим Карри, Кэти Айрленд, Фрэнк МакРей, Уильям Шетнер, Лэнс Кинси, Билл Нанн

    Сюжет фильма

    Два детектива — Джек Кольт и Уэс Люгер ищут убийцу бывшей напарницы и борются с торговцем наркотиками — неким генералом Мортарсом.
    Альтернативное описание:
    Объединение Американский пересмешник (National Lampoon) представляет эту эксцентрическую комедию, пародирующую полицейские боевики - Смертельное оружие, Грязный Гарри, Молчание ягнят и другие, снятую в духе Аэроплана, Голого пистолета и Горячих голов. Понятно? Много интересных находок, блестящий перевод Михалева. Любители пародий получат огромное удовольствие.
    Михаил Иванов

    Снималось в: США
    Время просмотра: 01: 22: 29
    Перевод текста: Профессиональный (многоголосый, закадровый) ТВ3, Авторский (одноголосый, закадровый) А.Михалев, Авторский (одноголосый, закадровый) Василий Горчаков
    Файл
    Кодек для видео: XviD
    Качество фильма: WEBRip с WEBRip 1080p |BLUEBIRD|
    Информация о видео: 704x384, 23, 976 fps, 1940 kbps
    Информация о звуке 1: AC-3 2.0/48, 0 kHz/192 kbps (MVO ТВ3)
    Информация о звуке 2: AC-3 2.0/48, 0 kHz/192 kbps (AVO Алексей Михалёв)
    Информация о звуке 3: AC-3 2.0/48, 0 kHz/192 kbps (AVO Василий Горчаков)
    MI
    Общее
    Полное имя : Zaryajenoe.orujie1.1993.WEBRip.avi
    Формат : AVI
    Формат/Информация : Audio Video Interleave
    Размер файла : 1, 46 Гбайт
    Продолжительность : 1 ч. 22 м.
    Общий поток : 2534 Кбит/сек
    Программа кодирования : VirtualDubMod 1.5.10.2 (build 2542/release)
    Библиотека кодирования : VirtualDubMod build 2542/release
    Видео
    Идентификатор : 0
    Формат : MPEG-4 Visual
    Профиль формата : Advanced Simple@L5
    Параметр BVOP формата : 1
    Параметр QPel формата : Нет
    Параметр GMC формата : Без точки перехода
    Параметр матрицы формата : Выборочная
    Идентификатор кодека : XVID
    Идентификатор кодека/Подсказка : XviD
    Продолжительность : 1 ч. 22 м.
    Битрейт : 1940 Кбит/сек
    Ширина : 704 пикс.
    Высота : 384 пикс.
    Соотношение сторон : 16: 9
    Частота кадров : 23, 976 кадр/сек
    Цветовое пространство : YUV
    Подвыборка цветности : 4: 2: 0
    Битовая глубина : 8 бит
    Тип развёртки : Прогрессивная
    Метод сжатия : С потерями
    Бит/(Пиксели*Кадры) : 0.299
    Размер потока : 1, 12 Гбайт (77%)
    Библиотека кодирования : XviD 73
    Аудио #1
    Идентификатор : 1
    Формат : AC-3
    Формат/Информация : Audio Coding 3
    Расширение режима : CM (complete main)
    Идентификатор кодека : 2000
    Продолжительность : 1 ч. 22 м.
    Вид битрейта : Постоянный
    Битрейт : 192 Кбит/сек
    Канал(ы) : 2 канала(ов)
    Расположение каналов : Front: L R
    Частота : 48, 0 КГц
    Битовая глубина : 16 бит
    Метод сжатия : С потерями
    Размер потока : 113 Мбайт (8%)
    Выравнивание : Разделение по промежуткам
    Продолжительность промежутка : 42 мс. (1, 00 видеокадр)
    Время предзагрузки промежутка : 500 ms
    Аудио #2
    Идентификатор : 2
    Формат : AC-3
    Формат/Информация : Audio Coding 3
    Расширение режима : CM (complete main)
    Идентификатор кодека : 2000
    Продолжительность : 1 ч. 22 м.
    Вид битрейта : Постоянный
    Битрейт : 192 Кбит/сек
    Канал(ы) : 2 канала(ов)
    Расположение каналов : Front: L R
    Частота : 48, 0 КГц
    Битовая глубина : 16 бит
    Метод сжатия : С потерями
    Размер потока : 113 Мбайт (8%)
    Выравнивание : Разделение по промежуткам
    Продолжительность промежутка : 42 мс. (1, 00 видеокадр)
    Время предзагрузки промежутка : 500 ms
    Аудио #3
    Идентификатор : 3
    Формат : AC-3
    Формат/Информация : Audio Coding 3
    Расширение режима : CM (complete main)
    Идентификатор кодека : 2000
    Продолжительность : 1 ч. 22 м.
    Вид битрейта : Постоянный
    Битрейт : 192 Кбит/сек
    Канал(ы) : 2 канала(ов)
    Расположение каналов : Front: L R
    Частота : 48, 0 КГц
    Битовая глубина : 16 бит
    Метод сжатия : С потерями
    Размер потока : 113 Мбайт (8%)
    Выравнивание : Разделение по промежуткам
    Продолжительность промежутка : 42 мс. (1, 00 видеокадр)
    Время предзагрузки промежутка : 500 ms
    Скриншоты

    Релиз подготовил: Leon-masl
    Залил: leon-masl

    Онлайн видео Заряженное оружие 1


    Размер скачиваемого торрента: 1.46 GB (1569921024 Bytes)

    Заряженное оружие 1/National Lampoons Loaded Weapon 1 (1993) WEBRip от Leon-masl | P, A
    загрузка...
    Рейтинг →
     (голосов: 1, оценка 3/5, голосовать можно 1 раз )

    Другие торренты по теме:

  • Заряженное оружие 1 / National Lampoons Loaded Weapon 1 (1993) DVDRip-AVC от olegek70 | P2, A
  • Заряженное оружие 1 / Loaded Weapon 1 (1993) DVDRip | P скачать через торрент бесплатно
  • Заряженное оружие 1 / Loaded Weapon 1 (1993) HDTVRip 720p | P, P2, Р1
  • Заряженное оружие 1 / Loaded Weapon 1 (1993) HDTVRip | P2 ,Р1
  • Заряженное оружие 1 / Loaded Weapon 1 (1993) WEBRip-AVC от k.e.n | P, P2, A


    • Комментарии (0):

      Информация

      Информация

        Посетители, находящиеся в группе Гости, не могут оставлять комментарии в данной новости.

        ↓ Меню



        ↓ Опрос

        А Вы добавили сайт в закладки?
        Да
        Не


        Top 10 за месяц (Фильмы)