.
Авторизация | Регистрация
Хочешь лучшие торренты? Добавь свой email!
Добавить
» » Неоновый демон / The Neon Demon (2016) BDRip 1080p от ExKinoRay | D, A | iTunes торрент скачать бесплатно




    Неоновый демон / The Neon Demon (2016) BDRip 1080p от ExKinoRay | D, A | iTunes торрент скачать бесплатно

    Опубликовал: Админ | Дата: 8-11-2016, 05:00 | Просмотров: 30



    Детально о кино
    Русское название: Неоновый демон
    Русское название в мировом прокате: The Neon Demon
    Создали в: 2016
    Категория жанра: Ужасы, триллер
    Главный режиссер: Николас Виндинг Рефн

    Актеры
    Киану Ривз, Элль Фэннинг, Карл Глусман, Джена Мэлоун, Белла Хиткот, Эбби Ли, Десмонд Хэррингтон, Кристина Хендрикс, Чарльз Бэйкер, Джеми Клейтон
    О фильме:
    Провинциалка Джесси, мечтающая стать супермоделью, едва окончив школу, отправляется покорять Лос-Анджелес. Через тернии (одна, без денег, чужой город, дешевый мотель), но и через нужные знакомства, фотосессии, вечеринки — к звездам. И вот это сладкое слово слава становится былью для юной красавицы. Но за стремительный карьерный взлет придется расплатиться — конкурентки из ненависти и безумной зависти готовы на многое.

    Снималось в: Франция, Дания, США
    Киностудия: Bold Films, Space Rocket Nation, Vendian Entertainment
    Время просмотра: 01: 57: 42
    Перевод текста(ы):
    #1: Дублированный | iTunes
    #2: Авторский одноголосый (закадровый) | А. Матвеев
    Файл
    Кодек для видео: MPEG-4
    Качество фильма: BDRip 1080p
    Информация о видео: 1920x804, 11.0 Mbit/s, 23.976 fps
    Информация о звуке:
    Информация о звуке #01: 48 kHz, AC3, 5.1, 384 Kbps | Дублированный |
    Информация о звуке #02: 48 kHz, AC3, 5.1, 640 Kbps | Авторский одноголосый (закадровый) | А. Матвеев (без ценз.) |
    Информация о звуке #03: 48 kHz, AC3, 5.1, 640 Kbps | Авторский одноголосый (закадровый) | А. Матвеев (ценз.) |
    Информация о звуке #04: 48 kHz, DTS, 5.1, 1510 kbps | Оригинал |
    Субтитры: Русские, английские
    MI
    General
    Unique ID : 245529890488593724454043675033026560448 (0xB8B7563AB6E0C2AD9C6B415335F201C0)
    Complete name : H: VideoThe.Neon.Demon.2016.D.AVO.BDRip.1080p.ExKinoRay.mkv
    Format : Matroska
    Format version : Version 4/Version 2
    File size : 11.7 GiB
    Duration : 1 h 57 min
    Overall bit rate : 14.2 Mb/s
    Movie name : ***селезень***
    Encoded date : UTC 2016-11-07 22: 06: 09
    Writing application : mkvmerge v8.3.0 (;Over the Horizon;) 64bit
    Writing library : libebml v1.3.1 + libmatroska v1.4.2
    Video
    ID : 1
    Format : AVC
    Format/Info : Advanced Video Codec
    Format profile : High@L4.1
    Format settings, CABAC : Yes
    Format settings, ReFrames : 5 frames
    Codec ID : V_MPEG4/ISO/AVC
    Duration : 1 h 57 min
    Bit rate : 11.0 Mb/s
    Width : 1 920 pixels
    Height : 804 pixels
    Display aspect ratio : 2.40: 1
    Frame rate mode : Constant
    Frame rate : 23.976 (24000/1001) FPS
    Color space : YUV
    Chroma subsampling : 4: 2: 0
    Bit depth : 8 bits
    Scan type : Progressive
    Bits/(Pixel*Frame) : 0.298
    Stream size : 9.06 GiB (78%)
    Writing library : x264 core 146 r2538 121396c
    Encoding settings : cabac=1/ref=5/deblock=1: -3: -3/analyse=0x3: 0x133/me=umh/subme=10/psy=1/psy_rd=1.03: 0.15/mixed_ref=1/me_range=32/chroma_me=1/trellis=2/8x8dct=1/cqm=0/deadzone=21, 11/fast_pskip=0/chroma_qp_offset=-3/threads=12/lookahead_threads=2/sliced_threads=0/nr=0/decimate=0/interlaced=0/bluray_compat=0/constrained_intra=0/bframes=8/b_pyramid=2/b_adapt=2/b_bias=0/direct=3/weightb=1/open_gop=0/weightp=2/keyint=240/keyint_min=23/scenecut=40/intra_refresh=0/rc_lookahead=60/rc=2pass/mbtree=1/bitrate=11023/ratetol=1.0/qcomp=0.60/qpmin=0/qpmax=69/qpstep=4/cplxblur=20.0/qblur=0.5/vbv_maxrate=50000/vbv_bufsize=62500/nal_hrd=none/filler=0/ip_ratio=1.40/aq=1: 1.00
    Language : English
    Default : Yes
    Forced : No
    Audio #1
    ID : 2
    Format : AC-3
    Format/Info : Audio Coding 3
    Mode extension : CM (complete main)
    Format settings, Endianness : Big
    Codec ID : A_AC3
    Duration : 1 h 57 min
    Bit rate mode : Constant
    Bit rate : 384 kb/s
    Channel(s) : 6 channels
    Channel positions : Front: L C R, Side: L R, LFE
    Sampling rate : 48.0 kHz
    Frame rate : 31.250 FPS (1536 spf)
    Bit depth : 16 bits
    Compression mode : Lossy
    Stream size : 323 MiB (3%)
    Title : iTunes
    Language : Russian
    Default : Yes
    Forced : No
    Audio #2
    ID : 3
    Format : AC-3
    Format/Info : Audio Coding 3
    Mode extension : CM (complete main)
    Format settings, Endianness : Big
    Codec ID : A_AC3
    Duration : 1 h 57 min
    Bit rate mode : Constant
    Bit rate : 640 kb/s
    Channel(s) : 6 channels
    Channel positions : Front: L C R, Side: L R, LFE
    Sampling rate : 48.0 kHz
    Frame rate : 31.250 FPS (1536 spf)
    Bit depth : 16 bits
    Compression mode : Lossy
    Delay relative to video : 6 s 500 ms
    Stream size : 538 MiB (5%)
    Title : AVO Matveev no.cens
    Language : Russian
    Default : No
    Forced : No
    Audio #3
    ID : 4
    Format : AC-3
    Format/Info : Audio Coding 3
    Mode extension : CM (complete main)
    Format settings, Endianness : Big
    Codec ID : A_AC3
    Duration : 1 h 57 min
    Bit rate mode : Constant
    Bit rate : 640 kb/s
    Channel(s) : 6 channels
    Channel positions : Front: L C R, Side: L R, LFE
    Sampling rate : 48.0 kHz
    Frame rate : 31.250 FPS (1536 spf)
    Bit depth : 16 bits
    Compression mode : Lossy
    Delay relative to video : 6 s 500 ms
    Stream size : 538 MiB (5%)
    Title : AVO Matveev cens.
    Language : Russian
    Default : No
    Forced : No
    Audio #4
    ID : 5
    Format : DTS
    Format/Info : Digital Theater Systems
    Mode : 16
    Format settings, Endianness : Big
    Codec ID : A_DTS
    Duration : 1 h 57 min
    Bit rate mode : Constant
    Bit rate : 1 509 kb/s
    Channel(s) : 6 channels
    Channel positions : Front: L C R, Side: L R, LFE
    Sampling rate : 48.0 kHz
    Frame rate : 93.750 FPS (512 spf)
    Bit depth : 24 bits
    Compression mode : Lossy
    Stream size : 1.24 GiB (11%)
    Title : Original
    Language : English
    Default : No
    Forced : No
    Text #1
    ID : 6
    Format : UTF-8
    Codec ID : S_TEXT/UTF8
    Codec ID/Info : UTF-8 Plain Text
    Duration : 1 h 47 min
    Bit rate : 27 b/s
    Count of elements : 641
    Stream size : 21.7 KiB (0%)
    Title : Full
    Language : Russian
    Default : No
    Forced : No
    Text #2
    ID : 7
    Format : UTF-8
    Codec ID : S_TEXT/UTF8
    Codec ID/Info : UTF-8 Plain Text
    Duration : 1 h 44 min
    Bit rate : 19 b/s
    Count of elements : 618
    Stream size : 15.2 KiB (0%)
    Title : Full
    Language : English
    Default : No
    Forced : No
    Text #3
    ID : 8
    Format : UTF-8
    Codec ID : S_TEXT/UTF8
    Codec ID/Info : UTF-8 Plain Text
    Duration : 1 h 45 min
    Bit rate : 22 b/s
    Count of elements : 729
    Stream size : 17.6 KiB (0%)
    Title : SDH
    Language : English
    Default : No
    Forced : No
    Menu
    00: 00: 00.000 : en: 00: 00: 00.000
    00: 07: 27.822 : en: 00: 07: 27.822
    00: 15: 43.901 : en: 00: 15: 43.901
    00: 21: 05.931 : en: 00: 21: 05.931
    00: 26: 36.637 : en: 00: 26: 36.637
    00: 30: 33.915 : en: 00: 30: 33.915
    00: 36: 39.656 : en: 00: 36: 39.656
    00: 43: 15.843 : en: 00: 43: 15.843
    00: 50: 39.328 : en: 00: 50: 39.328
    00: 56: 44.109 : en: 00: 56: 44.109
    01: 04: 59.604 : en: 01: 04: 59.604
    01: 09: 24.619 : en: 01: 09: 24.619
    01: 17: 38.862 : en: 01: 17: 38.862
    01: 23: 37.679 : en: 01: 23: 37.679
    01: 31: 53.800 : en: 01: 31: 53.800
    01: 41: 10.314 : en: 01: 41: 10.314
    01: 47: 28.734 : en: 01: 47: 28.734
    01: 51: 56.460 : en: 01: 51: 56.460
    Скриншоты



    Релиз подготовил: Автор релиза:

    Онлайн видео Неоновый демон


    Размер скачиваемого торрента: 11.67 GB (12526603898 Bytes)

    Неоновый демон/The Neon Demon (2016) BDRip 1080p от ExKinoRay | D, A | iTunes
    загрузка...
    Рейтинг →
     (голосов: 1, оценка 4/5, голосовать можно 1 раз )

    Другие торренты по теме:

  • Cliff Martinez - Неоновый демон / The Neon Demon (2016) FLAC
  • Неоновый демон / The Neon Demon (2016) WEB-DLRip 720р | Звук с TS
  • Неоновый демон / The Neon Demon (2016) WEB-DL 1080p | L , А
  • Неоновый демон / The Neon Demon (2016) WEB-DLRip от MegaPeer | A
  • Неоновый демон / The Neon Demon (2016) WEB-DLRip 1080p | Line
  • Неоновый демон / The Neon Demon (2016) HDRip | Line
  • Неоновый демон / The Neon Demon (2016) BDRip 720p | Line
  • Неоновый демон / The Neon Demon (2016) BDRip 1080p от ExKinoRay | L, A


    • Комментарии (0):

      Информация

      Информация

        Посетители, находящиеся в группе Гости, не могут оставлять комментарии в данной новости.

        ↓ Меню



        ↓ Опрос

        А Вы добавили сайт в закладки?
        Да
        Не


        Top 10 за месяц (Фильмы)