.
Авторизация | Регистрация
» » Принцесса для гусей / Die Gnsemagd (2009) HDTVRip 1080p | D, P скачать торрент бесплатно




    Принцесса для гусей / Die Gnsemagd (2009) HDTVRip 1080p | D, P скачать торрент бесплатно

    Опубликовал: Админ | Дата: 9-11-2016, 05:00 | Просмотров: 11



    Детально о кино
    Русское название: Гусятница/Принцесса для гусей
    Русское название в мировом прокате: Die G?nsemagd
    Создали в: 2009
    Категория жанра: семейный, сказка
    Главный режиссер: Сибилла Тафель

    Актеры
    Каролина Херфурт, Флориан Лукас, Сюзанне Борманн, Юлиус Рёмер, Петра Келлинг, Хенри Хюбхен, Рихард ван Вейден, Юле Дорманн, Паулина Рюммеляйн, Катрин Фильцен

    Сюжет фильма

    Экранизация сказки братьев Гримм. Королева-мать отправляет свою дочь Елизавету в далекое королевство, с принцем которого девушка должна обручиться. Принцессу сопровождает ее служанка Магдалена. По дороге она принуждает Елизавету поменяться ролями, чтобы обманом выйти замуж за принца Леопольда. В дворце короля, пока не раскрыт обман, настоящая принцесса вынуждена служить пастушкой для гусей. Но как ни старалась Магдалена скрыть свой ужасный поступок, тайна раскрылась...

    Создали в: Германия/Hessischer Rundfunk (HR), Kinderfilm
    Время просмотра: 00: 58: 47
    Перевод текста: профессиональный (дублированный), профессиональный (многоголосый закадровый)Игмар
    Файл
    Качество фильма: HDTVRip 1080p
    Тип видео: MKV
    Информация о видео: MPEG-4 AVC, 1920x1080 (16: 9), 25.000 fps, 5000 kbps, 0.096 bit/pixel
    Информация о звуке #1: русский, AC3 2.0, 48 kHz, 192 kbps | Dub
    Информация о звуке #2: русский, AC3 2.0, 48 kHz, 192 kbps | MVO
    Информация о звуке #3: немецкий, AC3 2.0, 48 kHz, 192 kbps
    MediaInfo
    Формат : Matroska
    Версия формата : Version 4/Version 2
    Размер файла : 2, 29 Гбайт
    Продолжительность : 58 м.
    Режим общего битрейта : Постоянный
    Общий поток : 5579 Кбит/сек
    Дата кодирования : UTC 2016-11-01 14: 17: 35
    Программа кодирования : mkvmerge v7.9.0 (;Birds;) 64bit
    Библиотека кодирования : libebml v1.3.1 + libmatroska v1.4.2
    Видео
    Идентификатор : 1
    Формат : AVC
    Формат/Информация : Advanced Video Codec
    Профиль формата : High@L4.1
    Параметр CABAC формата : Да
    Параметр ReFrames формата : 3 кадра
    Параметр GOP формата : M=3, N=25
    Идентификатор кодека : V_MPEG4/ISO/AVC
    Продолжительность : 58 м.
    Вид битрейта : Постоянный
    Битрейт : 5000 Кбит/сек
    Ширина : 1920 пикселей
    Высота : 1080 пикселей
    Соотношение сторон : 16: 9
    Режим частоты кадров : Постоянный
    Частота кадров : 25, 000 кадров/сек
    Стандарт вещания : PAL
    Цветовое пространство : YUV
    Субдискретизация насыщенности : 4: 2: 0
    Битовая глубина : 8 бит
    Тип развёртки : Прогрессивная
    Бит/(Пиксели*Кадры) : 0.096
    Размер потока : 2, 01 Гбайт (88%)
    Default : Да
    Forced : Нет
    Цветовой диапазон : Limited
    Основные цвета : BT.709
    Характеристики трансфера : BT.709
    Коэффициенты матрицы : BT.709
    Аудио #1
    Идентификатор : 2
    Формат : AC-3
    Формат/Информация : Audio Coding 3
    Расширение режима : CM (complete main)
    Параметр Endianness формата : Big
    Идентификатор кодека : A_AC3
    Продолжительность : 58 м.
    Вид битрейта : Постоянный
    Битрейт : 192 Кбит/сек
    Каналы : 2 канала
    Расположение каналов : Front: L R
    Частота : 48, 0 КГц
    Метод сжатия : С потерями
    Размер потока : 80, 7 Мбайт (3%)
    Заголовок : Dub
    Язык : Russian
    Default : Да
    Forced : Нет
    Аудио #2
    Идентификатор : 3
    Формат : AC-3
    Формат/Информация : Audio Coding 3
    Расширение режима : CM (complete main)
    Параметр Endianness формата : Big
    Идентификатор кодека : A_AC3
    Продолжительность : 58 м.
    Вид битрейта : Постоянный
    Битрейт : 192 Кбит/сек
    Каналы : 2 канала
    Расположение каналов : Front: L R
    Частота : 48, 0 КГц
    Метод сжатия : С потерями
    Размер потока : 80, 7 Мбайт (3%)
    Заголовок : MVO
    Язык : Russian
    Default : Нет
    Forced : Нет
    Аудио #3
    Идентификатор : 4
    Формат : AC-3
    Формат/Информация : Audio Coding 3
    Расширение режима : CM (complete main)
    Параметр Endianness формата : Big
    Идентификатор кодека : A_AC3
    Продолжительность : 58 м.
    Вид битрейта : Постоянный
    Битрейт : 192 Кбит/сек
    Каналы : 2 канала
    Расположение каналов : Front: L R
    Частота : 48, 0 КГц
    Метод сжатия : С потерями
    Размер потока : 80, 7 Мбайт (3%)
    Язык : German
    Default : Нет
    Forced : Нет
    Скриншоты

    Залил: makkaronni

    Онлайн видео Принцесса для гусей


    Размер скачиваемого торрента: 2.29 GB (2460036837 Bytes)

    Принцесса для гусей/Die Gnsemagd (2009) HDTVRip 1080p | D, P
    загрузка...
    Рейтинг →
     (голосов: 1, оценка 3/5, голосовать можно 1 раз )

    Другие торренты по теме:

  • Принцесса для гусей / Die Gnsemagd (2009) HDTVRip | D, P скачать торрент бесплатно


    • Комментарии (0):

      Информация

      Информация

        Посетители, находящиеся в группе Гости, не могут оставлять комментарии в данной новости.

        ↓ Меню



        ↓ Опрос

        А Вы добавили сайт в закладки?
        Да
        Не


        Top 10 за неделю (Фильмы)