.
Авторизация | Регистрация
Хочешь лучшие торренты? Добавь свой email!
Добавить
» » Бессмертный гарнизон (1956) DVDRip от New-Team торрент скачать бесплатно




    Бессмертный гарнизон (1956) DVDRip от New-Team торрент скачать бесплатно

    Опубликовал: Админ | Дата: 9-11-2016, 05:01 | Просмотров: 39



    Снималось в: СССР
    Создали в: Мосфильм
    Категория жанра: драма, военный
    Создали в: 1956
    Время просмотра: 01: 30: 04
    Перевод текста: Не требуется
    Субтитры подготовлены: нет
    Оригинальная аудиодорожка: русский
    Главный режиссер: Захар Аграненко, Эдуард Тиссэ

    Актеры

    Василий Макаров, Владимир Емельянов, Николай Крючков, Анатолий Чемодуров, Валентина Серова, Лидия Сухаревская, Антонина Богданова, Лариса Нарышкина, Геннадий Сайфулин, Надя Фандикова, Феликс Яворский, Владимир Монахов (II), Евгений Михайлов (II), Михаил Дадыко, Леонид Чубаров, Юрий Аверин...
    Полный список актёров
    Описание:
    Фильм посвящен беспримерному подвигу защитников Брестской крепости. Время действия: 22 июня - 20 июля 1941 года, первые, самые страшные дни Великой Отечественной войны. В ленте отражен всенародный патриотический подъем в дни фашистского нашествия, самоотверженность и сплоченность советских людей перед лицом врага.



    Источник: DVD5 R5
    Качество фильма видео: DVDRip
    Тип видео видео: AVI
    Информация о видео: 640x480 (4: 3), 25 fps, XviD ~ 1017 kbps avg, 0.132 bit/pixel
    Информация о звуке: 48 kHz, MP3 2.0, 128 kbps
    Раздача от:
    MediaInfo

    Общее
    Полное имя : Bessmertnyi.garnizon.1956.DVDRip-745_New-team_by_AVP_Studio.avi
    Формат : AVI
    Формат/Информация : Audio Video Interleave
    Размер файла : 744 Мбайт
    Продолжительность : 1 ч. 30 м.
    Общий поток : 1155 Кбит/сек
    Программа кодирования : VirtualDubMod 1.5.10.3 | www.virtualdub-fr.org || (build 2550/release)
    Библиотека кодирования : VirtualDubMod build 2550/release
    Видео
    Идентификатор : 0
    Формат : MPEG-4 Visual
    Профиль формата : Advanced Simple@L5
    Параметр BVOP формата : 1
    Параметр QPel формата : Нет
    Параметр GMC формата : Без точки перехода
    Параметр матрицы формата : Выборочная
    Идентификатор кодека : XVID
    Идентификатор кодека/Подсказка : XviD
    Продолжительность : 1 ч. 30 м.
    Битрейт : 1017 Кбит/сек
    Ширина : 640 пикселей
    Высота : 480 пикселей
    Соотношение сторон : 4: 3
    Частота кадров : 25, 000 кадров/сек
    Цветовое пространство : YUV
    Субдискретизация насыщенности : 4: 2: 0
    Битовая глубина : 8 бит
    Тип развёртки : Прогрессивная
    Метод сжатия : С потерями
    Бит/(Пиксели*Кадры) : 0.132
    Размер потока : 655 Мбайт (88%)
    Библиотека кодирования : XviD 1.2.1 (UTC 2008-12-04)
    Аудио
    Идентификатор : 1
    Формат : MPEG Audio
    Версия формата : Version 1
    Профиль формата : Layer 3
    Идентификатор кодека : 55
    Идентификатор кодека/Подсказка : MP3
    Продолжительность : 1 ч. 30 м.
    Вид битрейта : Постоянный
    Битрейт : 128 Кбит/сек
    Каналы : 2 канала
    Частота : 48, 0 КГц
    Метод сжатия : С потерями
    Размер потока : 82, 5 Мбайт (11%)
    Выравнивание : Соединение по промежуткам
    Продолжительность промежутка : 40 мс. (1, 00 видеокадр)
    Время предзагрузки промежутка : 504 мс.
    Библиотека кодирования : LAME3.99r
    Залил: AVPStudio

    Онлайн видео Бессмертный гарнизон (1956) DVDRip от New


    Размер скачиваемого торрента: 744.21 MB (780355584 Bytes)


    Бессмертный гарнизон (1956) DVDRip от New-Team
    загрузка...
    Рейтинг →
     (голосов: 1, оценка 4/5, голосовать можно 1 раз )

    Другие торренты по теме:

  • Бессмертный гарнизон / 1956 / РУ / DVDRip
  • Бессмертный гарнизон / 1956 / РУ / DVDRip


    • Комментарии (0):

      Информация

      Информация

        Посетители, находящиеся в группе Гости, не могут оставлять комментарии в данной новости.

        ↓ Меню



        ↓ Опрос

        А Вы добавили сайт в закладки?
        Да
        Не


        Top 10 за месяц (Фильмы)