.
Авторизация | Регистрация
Хочешь лучшие торренты? Добавь свой email!
Добавить
» » Никто не хотел умирать (1965) DVDRip от New-Team торрент скачать бесплатно




    Никто не хотел умирать (1965) DVDRip от New-Team торрент скачать бесплатно

    Опубликовал: Админ | Дата: 9-11-2016, 05:01 | Просмотров: 42



    Снималось в: СССР
    Создали в: Литовская киностудия
    Категория жанра: боевик, драма, вестерн, история
    Создали в: 1965
    Время просмотра: 01: 40: 26
    Перевод текста: Не требуется
    Субтитры подготовлены: нет
    Оригинальная аудиодорожка: русский
    Главный режиссер: Витаутас Жалакявичюс

    Актеры

    Казимирас Виткус, Донатас Банионис, Регимантас Адомайтис, Юозас Будрайтис, Альгимантас Масюлис, Бруно Оя, Вия Артмане, Дангуоле Баукайте, Эугения Шулгайте, Антанас Шурна, Бронюс Бабкаускас, Лаймонас Норейка, Витаутас Томкус...
    Полный список актёров
    Описание:
    1947 год. В литовских лесах еще прячутся вооруженные банды из бывших полицейских, офицеров, кулацких сынков. Один за другим убиты четыре председателя сельсовета. Теперь погиб старый Локис. На похоронах четверо его сыновей клянутся не покидать деревню до тех пор, пока не уничтожат банду Домового...
    Выпуск фильма - 5 сентября 1966 г.



    Источник: DVD5 R5
    Качество фильма видео: DVDRip
    Тип видео видео: AVI
    Информация о видео: 688x368 (1, 85: 1), 25 fps, XviD ~ 1350 kbps avg, 0.213 bit/pixel
    Информация о звуке: 48 kHz, Dolby Digital AC3 2.0, 192 kbps
    Раздача от:
    MediaInfo

    Общее
    Полное имя : Nikto.ne.hotel.umirat.1965.DVDRip_New-team_by_AVP_Studio.avi
    Формат : AVI
    Формат/Информация : Audio Video Interleave
    Размер файла : 1, 09 Гбайт
    Продолжительность : 1 ч. 40 м.
    Общий поток : 1551 Кбит/сек
    Программа кодирования : VirtualDubMod 1.5.10.3 | www.virtualdub-fr.org || (build 2550/release)
    Библиотека кодирования : VirtualDubMod build 2550/release
    Видео
    Идентификатор : 0
    Формат : MPEG-4 Visual
    Профиль формата : Advanced Simple@L5
    Параметр BVOP формата : 1
    Параметр QPel формата : Нет
    Параметр GMC формата : Без точки перехода
    Параметр матрицы формата : Выборочная
    Идентификатор кодека : XVID
    Идентификатор кодека/Подсказка : XviD
    Продолжительность : 1 ч. 40 м.
    Битрейт : 1350 Кбит/сек
    Ширина : 688 пикселей
    Высота : 368 пикселей
    Соотношение сторон : 1, 85: 1
    Частота кадров : 25, 000 кадров/сек
    Цветовое пространство : YUV
    Субдискретизация насыщенности : 4: 2: 0
    Битовая глубина : 8 бит
    Тип развёртки : Прогрессивная
    Метод сжатия : С потерями
    Бит/(Пиксели*Кадры) : 0.213
    Размер потока : 970 Мбайт (87%)
    Библиотека кодирования : XviD 73
    Аудио
    Идентификатор : 1
    Формат : AC-3
    Формат/Информация : Audio Coding 3
    Расширение режима : CM (complete main)
    Параметр Endianness формата : Big
    Идентификатор кодека : 2000
    Продолжительность : 1 ч. 40 м.
    Вид битрейта : Постоянный
    Битрейт : 192 Кбит/сек
    Каналы : 2 канала
    Расположение каналов : Front: L R
    Частота : 48, 0 КГц
    Метод сжатия : С потерями
    Размер потока : 138 Мбайт (12%)
    Выравнивание : Разделение по промежуткам
    Продолжительность промежутка : 40 мс. (1, 00 видеокадр)
    Время предзагрузки промежутка : 500 мс

    Скриншоты



    Залил: AVPStudio

    Онлайн видео Никто не хотел умирать (1965) DVDRip от New


    Размер скачиваемого торрента: 1.09 GB (1168580608 Bytes)

    Никто не хотел умирать (1965) DVDRip от New-Team
    загрузка...
    Рейтинг →
     (голосов: 1, оценка 4/5, голосовать можно 1 раз )

    Другие торренты по теме:

  • Никто не хотел умирать (1965) DVDRip-AVC от New-Team


    • Комментарии (0):

      Информация

      Информация

        Посетители, находящиеся в группе Гости, не могут оставлять комментарии в данной новости.

        ↓ Меню



        ↓ Опрос

        А Вы добавили сайт в закладки?
        Да
        Не


        Top 10 за месяц (Фильмы)