.
Авторизация | Регистрация
» » Наши любовники / Nuestros amantes (2016) BDRip 720p от ExKinoRay | P скачать торрент бесплатно




    Наши любовники / Nuestros amantes (2016) BDRip 720p от ExKinoRay | P скачать торрент бесплатно

    Опубликовал: Админ | Дата: 9-11-2016, 05:01 | Просмотров: 55



    Детально о кино
    Русское название: Наши любовники
    Русское название в мировом прокате: Nuestros amantes
    Создали в: 2016
    Категория жанра: Мелодрама, драма, комедия
    Главный режиссер: Мигель Анхель Ламата

    Актеры
    Эдуардо Норьега, Мишель Хеннер, Феле Мартинес, Амайя Саламанка, Габино Диего, Хорхе Усон, Мария Хосе Морено, Кристина Джэллего, Саломе Хименес, Ирен Лопес Кабальеро
    О фильме:
    Карлос — умный и привлекательный, но выглядит грустно, будто судьба совсем не балует его. Однажды он отправляется в книжный бар, чтобы впервые в жизни выпить бренди. Ирен — прирожденная выдумщица и завсегдатай этого места. Они встретились не случайно: его сердце разбито, ее — растоптано. Один взгляд и между ними вспыхивает роман под выдуманными именами, импровизация без всякой спешки и обязательств. Вместе они отказываются от реальной жизни и с азартом окунаются в новый, иллюзорный мир, отправляя нас в приключение, наполненное юмором и нежностью.

    Снималось в: Испания
    Киностудия: Ad hoc studios, Bemybaby Films
    Время просмотра: 01: 31: 48
    Перевод текста: Профессиональный многоголосый (закадровый) | Официальный звук
    Файл
    Кодек для видео: MPEG-4
    Качество фильма: BDRip 720p
    Информация о видео: 1280x534, 3615 Kbit/s, 24.000 fps
    Информация о звуке:
    Информация о звуке #01: 48 kHz, AC3, 2.0, 192 Kbps | Профессиональный многоголосый (закадровый) |
    Информация о звуке #02: 48 kHz, DTS, 5.1, 768 kbps | Оригинал |
    MI
    General
    Unique ID : 197455878889353977415298270306753092136 (0x948C9E75CA3444D79B341F50A5CC9A28)
    Complete name : H: VideoNuestros.Amantes.2016.BDRip.720p.ExKinoRay.mkv
    Format : Matroska
    Format version : Version 4/Version 2
    File size : 2.94 GiB
    Duration : 1 h 31 min
    Overall bit rate : 4 578 kb/s
    Movie name : ***селезень***
    Encoded date : UTC 2016-11-06 13: 01: 48
    Writing application : mkvmerge v8.3.0 (;Over the Horizon;) 64bit
    Writing library : libebml v1.3.1 + libmatroska v1.4.2
    Video
    ID : 1
    Format : AVC
    Format/Info : Advanced Video Codec
    Format profile : High@L4.1
    Format settings, CABAC : Yes
    Format settings, ReFrames : 12 frames
    Codec ID : V_MPEG4/ISO/AVC
    Duration : 1 h 31 min
    Bit rate : 3 615 kb/s
    Width : 1 280 pixels
    Height : 534 pixels
    Display aspect ratio : 2.40: 1
    Frame rate mode : Constant
    Frame rate : 24.000 FPS
    Color space : YUV
    Chroma subsampling : 4: 2: 0
    Bit depth : 8 bits
    Scan type : Progressive
    Bits/(Pixel*Frame) : 0.220
    Stream size : 2.32 GiB (79%)
    Writing library : x264 core 148 r2699+6+41 29a38aa Yuuki 8-bit@4: 2: 0 X86_64GCC 5.3.0
    Encoding settings : cabac=1/ref=12/deblock=1: -3: -3/analyse=0x3: 0x113/me=umh/subme=11/psy=1/fade_compensate=0.00/psy_rd=1.00: 0.05/mixed_ref=1/me_range=32/chroma_me=1/trellis=2/8x8dct=1/cqm=0/deadzone=21, 11/fast_pskip=0/chroma_qp_offset=-2/threads=4/lookahead_threads=1/sliced_threads=0/nr=0/decimate=1/interlaced=0/bluray_compat=0/constrained_intra=0/fgo=0/bframes=8/b_pyramid=2/b_adapt=2/b_bias=0/direct=3/weightb=1/open_gop=0/weightp=2/keyint=250/keyint_min=24/scenecut=40/intra_refresh=0/rc=crf/mbtree=0/crf=17.1000/qcomp=0.60/qpmin=0: 0: 0/qpmax=69: 69: 69/qpstep=4/ip_ratio=1.40/pb_ratio=1.30/aq=3: 0.90
    Language : English
    Default : Yes
    Forced : No
    Audio #1
    ID : 2
    Format : AC-3
    Format/Info : Audio Coding 3
    Mode extension : CM (complete main)
    Format settings, Endianness : Big
    Codec ID : A_AC3
    Duration : 1 h 31 min
    Bit rate mode : Constant
    Bit rate : 192 kb/s
    Channel(s) : 2 channels
    Channel positions : Front: L R
    Sampling rate : 48.0 kHz
    Frame rate : 31.250 FPS (1536 spf)
    Bit depth : 16 bits
    Compression mode : Lossy
    Stream size : 126 MiB (4%)
    Title : MVO
    Language : Russian
    Default : Yes
    Forced : No
    Audio #2
    ID : 3
    Format : DTS
    Format/Info : Digital Theater Systems
    Mode : 16
    Format settings, Endianness : Big
    Codec ID : A_DTS
    Duration : 1 h 31 min
    Bit rate mode : Constant
    Bit rate : 768 kb/s
    Channel(s) : 6 channels
    Channel positions : Front: L C R, Side: L R, LFE
    Sampling rate : 48.0 kHz
    Frame rate : 93.750 FPS (512 spf)
    Bit depth : 24 bits
    Compression mode : Lossy
    Stream size : 504 MiB (17%)
    Title : Original
    Language : Spanish
    Default : No
    Forced : No
    Menu
    00: 00: 00.000 : en: 00: 00: 00.000
    00: 05: 00.000 : en: 00: 05: 00.000
    00: 10: 00.000 : en: 00: 10: 00.000
    00: 15: 00.000 : en: 00: 15: 00.000
    00: 20: 00.000 : en: 00: 20: 00.000
    00: 25: 00.000 : en: 00: 25: 00.000
    00: 30: 00.000 : en: 00: 30: 00.000
    00: 35: 00.000 : en: 00: 35: 00.000
    00: 40: 00.000 : en: 00: 40: 00.000
    00: 45: 00.000 : en: 00: 45: 00.000
    00: 50: 00.000 : en: 00: 50: 00.000
    00: 55: 00.000 : en: 00: 55: 00.000
    01: 00: 00.000 : en: 01: 00: 00.000
    01: 05: 00.000 : en: 01: 05: 00.000
    01: 10: 00.000 : en: 01: 10: 00.000
    01: 15: 00.000 : en: 01: 15: 00.000
    01: 20: 00.000 : en: 01: 20: 00.000
    01: 25: 00.000 : en: 01: 25: 00.000
    01: 30: 00.000 : en: 01: 30: 00.000


    Релиз подготовил: Автор релиза:

    Онлайн видео Наши любовники


    Размер скачиваемого торрента: 2.94 GB (3152099163 Bytes)

    Наши любовники/Nuestros amantes (2016) BDRip 720p от ExKinoRay | P
    загрузка...
    Рейтинг →
     (голосов: 1, оценка 3/5, голосовать можно 1 раз )

    Другие торренты по теме:

  • Наши любовники / Nuestros amantes (2016) HDRip | Line скачать торрент бесплатно
  • Наши любовники / Nuestros amantes (2016) BDRip 1080p от ExKinoRay | P скачать торрент бесплатно
  • Наши любовники / Nuestros amantes (2016) BDRip 720p | P, А скачать торрент бесплатно
  • Наши любовники / Nuestros amantes (2016) HDRip от Scarabey | iTunes скачать торрент бесплатно
  • Наши любовники / Nuestros amantes (2016) HDRip-AVC | iTunes скачать торрент бесплатно
  • Наши любовники / Nuestros amantes (2016) HDRip от MegaPeer | iTunes скачать торрент бесплатно
  • Наши любовники / Nuestros amantes (2016) BDRip от MegaPeer | iTunes скачать торрент бесплатно


    • Комментарии (0):

      Информация

      Информация

        Посетители, находящиеся в группе Гости, не могут оставлять комментарии в данной новости.

        ↓ Меню



        ↓ Опрос

        А Вы добавили сайт в закладки?
        Да
        Не


        Top 10 за неделю (Фильмы)