.
Авторизация | Регистрация
Хочешь лучшие торренты? Добавь свой email!
Добавить
» » Не дыши / Dont Breathe (2016) WEB-DL 1080p от ExKinoRay | iTunes торрент скачать бесплатно




    Не дыши / Dont Breathe (2016) WEB-DL 1080p от ExKinoRay | iTunes торрент скачать бесплатно

    Опубликовал: Админ | Дата: 10-11-2016, 05:00 | Просмотров: 20



    Детально о кино
    Русское название: Не дыши
    Русское название в мировом прокате: Don;t Breathe
    Создали в: 2016
    Категория жанра: Триллер, криминал, ужасы
    Главный режиссер: Федерико Альварес

    Актеры
    Стивен Лэнг, Джейн Леви, Дилан Миннетт, Дэниэл Дзоватто, Эмма Берковичи, Франциска Тёрёчик, Кристиан Сахиа, Катя Бокор, Сергей Онопко, Оливия Гиллис
    О фильме:
    Грабители забираются в дом одинокого слепого старика с целью украсть огромную сумму, которая, по слухам, спрятана где-то внутри. Казалось бы — что может быть проще, чем вынести деньги из дома практически беспомощного человека. Но они жестоко ошибаются: преследуемый становится преследователем. И тайна, которую он хранит, гораздо страшнее, чем обычные пенсионные накопления.

    Снималось в: США
    Киностудия: Ghost House Pictures
    Время просмотра: 01: 28: 30
    Перевод текста: Дублированный | iTunes
    Файл
    Кодек для видео: MPEG-4
    Качество фильма: WEB-DL 1080p
    Информация о видео: 1920x798, 4627 Kbit/s, 23.976 fps
    Информация о звуке:
    Информация о звуке #01: 48 kHz, AC3, 5.1, 384 Kbps | Дублированный | iTunes |
    Информация о звуке #02: 48 kHz, AC3, 5.1, 384 kbps | Оригинал |
    Субтитры: Русские (forced, full), английские
    MI
    General
    Unique ID : 251617814651661397358452922712936036742 (0xBD4BD41092CF74DBA96E30F9483A3986)
    Complete name : H: VideoDont.Breathe.2016.WEB-DL.1080p.ExKinoRay.mkv
    Format : Matroska
    Format version : Version 4/Version 2
    File size : 3.34 GiB
    Duration : 1 h 28 min
    Overall bit rate : 5 397 kb/s
    Movie name : ExKinoRay
    Encoded date : UTC 2016-11-09 22: 16: 51
    Writing application : mkvmerge v8.3.0 (;Over the Horizon;) 64bit
    Writing library : libebml v1.3.1 + libmatroska v1.4.2
    Video
    ID : 1
    Format : AVC
    Format/Info : Advanced Video Codec
    Format profile : High@L4
    Format settings, CABAC : Yes
    Format settings, ReFrames : 5 frames
    Codec ID : V_MPEG4/ISO/AVC
    Duration : 1 h 28 min
    Bit rate : 4 627 kb/s
    Width : 1 920 pixels
    Height : 798 pixels
    Display aspect ratio : 2.40: 1
    Frame rate mode : Constant
    Frame rate : 23.976 (23976/1000) FPS
    Color space : YUV
    Chroma subsampling : 4: 2: 0
    Bit depth : 8 bits
    Scan type : Progressive
    Bits/(Pixel*Frame) : 0.126
    Stream size : 2.86 GiB (86%)
    Language : English
    Default : Yes
    Forced : No
    Color range : Limited
    Color primaries : BT.709
    Transfer characteristics : BT.709
    Matrix coefficients : BT.709
    Audio #1
    ID : 2
    Format : AC-3
    Format/Info : Audio Coding 3
    Mode extension : CM (complete main)
    Format settings, Endianness : Big
    Codec ID : A_AC3
    Duration : 1 h 28 min
    Bit rate mode : Constant
    Bit rate : 384 kb/s
    Channel(s) : 6 channels
    Channel positions : Front: L C R, Side: L R, LFE
    Sampling rate : 48.0 kHz
    Frame rate : 31.250 FPS (1536 spf)
    Bit depth : 16 bits
    Compression mode : Lossy
    Stream size : 243 MiB (7%)
    Title : Dub iTunes
    Language : Russian
    Default : Yes
    Forced : No
    Audio #2
    ID : 3
    Format : AC-3
    Format/Info : Audio Coding 3
    Mode extension : CM (complete main)
    Format settings, Endianness : Big
    Codec ID : A_AC3
    Duration : 1 h 28 min
    Bit rate mode : Constant
    Bit rate : 384 kb/s
    Channel(s) : 6 channels
    Channel positions : Front: L C R, Side: L R, LFE
    Sampling rate : 48.0 kHz
    Frame rate : 31.250 FPS (1536 spf)
    Bit depth : 16 bits
    Compression mode : Lossy
    Stream size : 243 MiB (7%)
    Title : Original
    Language : English
    Default : No
    Forced : No
    Text #1
    ID : 4
    Format : UTF-8
    Codec ID : S_TEXT/UTF8
    Codec ID/Info : UTF-8 Plain Text
    Duration : 31 min 25 s
    Bit rate : 1 b/s
    Count of elements : 8
    Stream size : 283 Bytes (0%)
    Title : Forced iTunes
    Language : Russian
    Default : Yes
    Forced : No
    Text #2
    ID : 5
    Format : UTF-8
    Codec ID : S_TEXT/UTF8
    Codec ID/Info : UTF-8 Plain Text
    Duration : 1 h 22 min
    Bit rate : 36 b/s
    Count of elements : 519
    Stream size : 22.1 KiB (0%)
    Title : Full iTunes
    Language : Russian
    Default : No
    Forced : No
    Text #3
    ID : 6
    Format : UTF-8
    Codec ID : S_TEXT/UTF8
    Codec ID/Info : UTF-8 Plain Text
    Duration : 1 h 20 min
    Bit rate : 23 b/s
    Count of elements : 585
    Stream size : 14.1 KiB (0%)
    Title : Full
    Language : English
    Default : No
    Forced : No
    Menu
    00: 00: 00.000 : en: 00: 00: 00.000
    00: 07: 50.917 : en: 00: 07: 50.917
    00: 15: 23.208 : en: 00: 15: 23.208
    00: 24: 40.625 : en: 00: 24: 40.625
    00: 38: 49.833 : en: 00: 38: 49.833
    00: 43: 41.792 : en: 00: 43: 41.792
    00: 58: 08.958 : en: 00: 58: 08.958
    01: 07: 19.333 : en: 01: 07: 19.333
    01: 13: 50.417 : en: 01: 13: 50.417
    01: 17: 30.167 : en: 01: 17: 30.167
    01: 35: 39.292 : en: 01: 35: 39.292
    01: 41: 33.542 : en: 01: 41: 33.542


    Релиз подготовил: Автор релиза:

    Онлайн видео Не дыши


    Размер скачиваемого торрента: 3.34 GB (3583034175 Bytes)

    Не дыши/Dont Breathe (2016) WEB-DL 1080p от ExKinoRay | iTunes
    загрузка...
    Рейтинг →
     (голосов: 1, оценка 3/5, голосовать можно 1 раз )

    Другие торренты по теме:

  • Не дыши / Dont Breathe (2016) CAMRip | D
  • Не дыши / Dont Breathe (2016) WEBRip 720p | Line
  • Не дыши / Dont Breathe (2016) WEBRip | Line
  • Не дыши / Dont Breathe (2016) WEB-DL 720p | Line
  • Не дыши / Dont Breathe (2016) WEB-DLRip | Line
  • Не дыши / Dont Breathe (2016) WEB-DLRip от MegaPeer | iTunes
  • Не дыши / Dont Breathe (2016) WEB-DLRip от Scarabey | iTunes
  • Не дыши / Dont Breathe (2016) BDRip 1080p | iTunes


    • Комментарии (0):

      Информация

      Информация

        Посетители, находящиеся в группе Гости, не могут оставлять комментарии в данной новости.

        ↓ Меню



        ↓ Опрос

        А Вы добавили сайт в закладки?
        Да
        Не


        Top 10 за месяц (Фильмы)